Welcome Guest ( Log In | Register )

> Releases Upload / Добавление релизов

Добавить релиз тут / Click here to add release
Рекомендованные обменники / Recommended file shares

> Sammorra Shadow - Hiding Behind The Moonlit Forest (2022), Pagan Black Metal
post Aug 6 2022, 07:35:51
Post #1

Правь статус, ####!111
**************
Group: Металариец
Posts: 3,200
Releases: 1709
On Forums: 11 years 8 months
Thanks: 33373 time(s)
Russian Federation


(IMG:https://metalarea.org/images/audiocovers/2022_Aug/acov_tid368008_thumb.jpg)

*Artist: Sammorra Shadow
*Album: Hiding Behind The Moonlit Forest
*Year: 2022
*Genre: Pagan Black Metal
*Country: Ukraine (IMG:https://metalarea.org/forum/style_images/flags/Ukraine.png)
*Format: mp3@CBR320kbps
*Size: 121MB

Tracklist:
01.Sunlight Awakening 01:13
02.Torturing Light 06:46
03.Rainy Silent Forest 06:37
04.Lonely Running Star 06:31
05.Nightside Summoning to the Moon 07:58
06.Red Drowning Kingdom 06:22
07.Quiet World 06:37
08.Like a Wind 02:51
09.Sleep My Sweet Hope 08:16
******************************
Total playing time: 53:11

Preview 1

Technical info
(IMG:https://metalarea.org/images/spectrogram/2022_Aug/2333df98489847b750fc5857f204f495.png)
Input File: 04 - Lonely Running Star.mp3
Channels : 2
Sample Rate : 44100
Precision : 16-bit
Duration : 00:06:31.23 = 17253419 samples = 29342.5 CDDA sectors
File Size : 15.8M
Bit Rate : 322k
Sample Encoding: MPEG audio (layer I, II or III)
Comments :
Title=Lonely Running Star
Artist=Sammorra Shadow
Album=Hiding Behind the Moonlit Forest
Tracknumber=4
Year=2022
Genre=Pagan Black Metal



Register


Go to the top of the page
  Insert nick Quick quote
+Quote Post
 
Start new topic
Replies (1 - 1)
post Aug 6 2022, 20:50:16
Post #2

Group: Подсевший
Posts: 41
Releases: 0
From: Russia
On Forums: 13 years 11 months
Thanks: 24 time(s)
Russian Federation



Go to the top of the page
  Insert nick Quick quote
+Quote Post

Reply to this topicStart new topic
2 User(s) are reading this topic (2 Guests and 0 Anonymous Users)
0 Members:

 



- Lo-Fi Version Support form
Copyrights and abuse reports form
Time is now: 11th August 2022 - 09:50:09