Welcome Guest ( Log In | Register )

> Releases Upload / Добавление релизов

Добавить релиз тут / Click here to add release
Рекомендованные обменники / Recommended file shares

 
Reply to this topicStart new topic
> Creeping Cats - Losing Strength (2022), Epic Heavy Metal
post Aug 6 2022, 09:40:38
Post #1

Правь статус, ####!111
**************
Group: Металариец
Posts: 3,559
Releases: 2049
On Forums: 11 years 10 months
Thanks: 39184 time(s)
Russian Federation


(IMG:https://metalarea.org/images/audiocovers/2022_Aug/acov_tid368010_thumb.jpg)

*Artist: Creeping Cats
*Album: Losing Strength
*Year: 2022
*Genre: Epic Heavy Metal
*Country: Germany (IMG:https://metalarea.org/forum/style_images/flags/Germany.png)
*Format: mp3@CBR320kbps
*Size: 118MB

Tracklist:
01.Run from Trouble 05:24
02.Weight Is a Gift 07:12
03.The Boys of the Night 06:12
04.Ruby Red Lips 06:20
05.One More Night 06:53
06.Smoking in the Shadows 07:07
07.Everything at Once 06:15
08.New York Serenade 05:54
******************************
Total playing time: 51:17

(IMG:https://metalarea.org/images/youtube.png)

Technical info
(IMG:https://metalarea.org/images/spectrogram/2022_Aug/453d53869a8de89c81ea57ccc016e23a.png)
Input File: 01 - Run from Trouble.mp3
Channels : 2
Sample Rate : 44100
Precision : 16-bit
Duration : 00:05:24.10 = 14292634 samples = 24307.2 CDDA sectors
File Size : 13.2M
Bit Rate : 325k
Sample Encoding: MPEG audio (layer I, II or III)
Comments :
Title=Run From Trouble
Artist=Creeping Cats
Album=Losing Strength
Tracknumber=01
Year=2022
Genre=Epic Heavy Metal



Register


Go to the top of the page
  Insert nick Quick quote
+Quote Post

Reply to this topicStart new topic
1 User(s) are reading this topic (1 Guests and 0 Anonymous Users)
0 Members:

 



- Lo-Fi Version Support form
Copyrights and abuse reports form
Time is now: 3rd October 2022 - 03:25:31