Welcome Guest ( Log In | Register )

> Releases Upload / Добавление релизов

Добавить релиз тут / Click here to add release
Рекомендованные обменники / Recommended file shares

 
Reply to this topicStart new topic
> Ironia - Un Mundo De Odio (2022), Heavy Metal
post Aug 6 2022, 10:11:50
Post #1

Правь статус, ####!111
**************
Group: Металариец
Posts: 30,377
Releases: 22365
From: Г.Харьков
On Forums: 10 years 4 months
Thanks: 467151 time(s)
Unknown


(IMG:https://metalarea.org/images/audiocovers/2022_Aug/acov_tid368012_thumb.jpg)

*Artist: Ironia
*Album: Un Mundo De Odio
*Year: 2022
*Genre: Heavy Metal
*Country: Argentina (IMG:https://metalarea.org/forum/style_images/flags/Argentina.png)
*Format: mp3@CBR320kbps
*Size: 78MB

Tracklist:
1. Buscandote
2. Las Deudas Del Alba
3. Quemar Tus Sueños
4. Tu Nuevo Desastre
5. Un Mundo De Odio
6. En El Medio Del Caos
7. La Vida Que Tuvimos
8. Culpable
******************************
Total playing time: 33:57



Extended info
Marcelo Pinto Guitars (2007-2015, 2016-present)
See also: ex-Omen
Luis Barrera Bass (2018-present)
See also: ex-Omen, ex-Zurko
Pablo Ureta Drums (2018-present)
See also: Amma, Ariel Perchuk's Odyssey
Sebastian Contreras Guitars (2018-present)
Fernando Santabaya Vocals (2019-present)
See also: ex-Nefesh


Technical info
(IMG:https://metalarea.org/images/spectrogram/2022_Aug/ff96e7c03fb9a282b9d634bcbc9a0c4e.png)
Input File: 07 - La Vida Que Tuvimos.mp3
Channels : 2
Sample Rate : 44100
Precision : 16-bit
Duration : 00:05:10.38 = 13687626 samples = 23278.3 CDDA sectors
File Size : 12.5M
Bit Rate : 322k
Sample Encoding: MPEG audio (layer I, II or III)
Comments :
Title=La Vida Que Tuvimos
Artist=Ironia
Album=Un Mundo De Odio
Tracknumber=7/8
Year=2022



Register


Go to the top of the page
  Insert nick Quick quote
+Quote Post

Reply to this topicStart new topic
1 User(s) are reading this topic (1 Guests and 0 Anonymous Users)
0 Members:

 



- Lo-Fi Version Support form
Copyrights and abuse reports form
Time is now: 3rd October 2022 - 01:53:07