Welcome Guest ( Log In | Register )

> Releases Upload / Добавление релизов

Добавить релиз тут / Click here to add release
Рекомендованные обменники / Recommended file shares

 
Reply to this topicStart new topic
> Valpuri Kyni - The Path Of Hiisi [ep] (2022), Black Metal
post Aug 6 2022, 14:49:58
Post #1

Правь статус, 616
**************
Group: Металариец
Posts: 7,972
Releases: 6310
From: 55°35’N 38°08’E
On Forums: 14 years 2 months
Thanks: 115360 time(s)
Russian Federation


(IMG:https://metalarea.org/images/audiocovers/2022_Aug/acov_tid368019_thumb.jpg)

*Artist: Valpuri Kyni
*Album: The Path Of Hiisi [ep]
*Year: 2022
*Genre: Black Metal
*Country: Finland (IMG:https://metalarea.org/forum/style_images/flags/Finland.png)
*Format: mp3@CBR320kbps
*Size: 47MB

Tracklist:
1.Pappisvaino 05:44
2.Metsä Muistaa Syöpäläisen 03:26
3.The Path of Hiisi 03:55
4.Forest Melancholy 02:13
5.Karhun Nostatus 04:38
******************************
Total playing time: 19:56



Extended info
Scene (FLAC-Rip)


Technical info
(IMG:https://metalarea.org/images/spectrogram/2022_Aug/89beeae346e67d03ee344b92ca95ebf7.png)
Input File: 02 Metsä Muistaa Syöpäläisen.mp3
Channels : 2
Sample Rate : 44100
Precision : 16-bit
Duration : 00:03:26.25 = 9095669 samples = 15468.8 CDDA sectors
File Size : 8.43M
Bit Rate : 327k
Sample Encoding: MPEG audio (layer I, II or III)
Comments :
Title=Metsä Muistaa Syöpäläisen
Artist=Valpuri Kyni
Album=The Path Of Hiisi
Tracknumber=2/5
Year=2022
Genre=Black Metal



Register


Go to the top of the page
  Insert nick Quick quote
+Quote Post

Reply to this topicStart new topic
1 User(s) are reading this topic (1 Guests and 0 Anonymous Users)
0 Members:

 



- Lo-Fi Version Support form
Copyrights and abuse reports form
Time is now: 3rd October 2022 - 03:20:28