Welcome Guest ( Log In | Register )

> Releases Upload / Добавление релизов

Добавить релиз тут / Click here to add release
Рекомендованные обменники / Recommended file shares

 
Reply to this topicStart new topic
> Crystal Fate - Euphoria (2022), Heavy/Thrash Metal
post Aug 7 2022, 19:25:58
Post #1

Правь статус, ####!111
**************
Group: Металариец
Posts: 30,318
Releases: 22320
From: Г.Харьков
On Forums: 10 years 4 months
Thanks: 465853 time(s)
Unknown


(IMG:https://metalarea.org/images/audiocovers/2022_Aug/acov_tid368079_thumb.jpg)

*Artist: Crystal Fate
*Album: Euphoria
*Year: 2022
*Genre: Heavy/Thrash Metal
*Country: Canada (IMG:https://metalarea.org/forum/style_images/flags/Canada.png)
*Format: mp3@CBR320kbps
*Size: 79MB

Tracklist:
1. Euphoria 02:56
2. Lost All Control 03:42
3. Break the Cycle 02:20
4. Exhilaration 03:26
5. Tables Have Turned 03:20
6. Price You Pay 02:33
7. Waited for You 04:02
8. Perception 03:42
9. Destiny 02:33
10. Meltdown 02:08
11. Distant Place 04:02
******************************
Total playing time: 34:44




Extended info
Phil Arson All instruments, Vocals
See also: Active Arson


Technical info
(IMG:https://metalarea.org/images/spectrogram/2022_Aug/07830349a7fc6728ef4a9d506a6eaa10.png)
Input File: 07 - Waited For You.mp3
Channels : 2
Sample Rate : 44100
Precision : 16-bit
Duration : 00:04:02.59 = 10698175 samples = 18194.2 CDDA sectors
File Size : 9.71M
Bit Rate : 320k
Sample Encoding: MPEG audio (layer I, II or III)
Comments :
Title=Waited For You
Artist=Crystal Fate
Album=Euphoria
Tracknumber=7
Year=2022



Register


Go to the top of the page
  Insert nick Quick quote
+Quote Post

Reply to this topicStart new topic
1 User(s) are reading this topic (1 Guests and 0 Anonymous Users)
0 Members:

 



- Lo-Fi Version Support form
Copyrights and abuse reports form
Time is now: 25th September 2022 - 11:32:11