Welcome Guest ( Log In | Register )

> Parasite Inc. - Follow The Blind [single] (2022), Melodic Death Metal (D5)
post Aug 9 2022, 18:33:33
Post #1

MDM-Thrash Metal
**************
Group: Металариец
Posts: 11,470
Releases: 1602
From: Одесса
On Forums: 15 years 3 months
Thanks: 37773 time(s)
Ukraine


(IMG:http://metalarea.org/images/audiocovers/2022_Aug/acov_tid368133_thumb.jpg)

*Artist: Parasite Inc.
*Album: Follow The Blind [single]
*Year: 2022
*Genre: Melodic Death Metal
*Country: Germany (IMG:http://metalarea.org/forum/style_images/flags/Germany.png)
*Format: mp3@CBR320kbps
*Size: 11MB

Tracklist:
1. Follow the Blind 04:53
******************************
Total playing time: 4:53



(IMG:http://metalarea.org/images/youtube.png)

Extended info
Benjamin Stelzer Drums (2007-present)
See also: ex-Satanic Syndrome
Kai Bigler Vocals, Guitars (2007-present)
Dominik Sorg Guitars (2014-present)
Lucien Mosesku Bass (2020-present)


Technical info
(IMG:http://metalarea.org/images/spectrogram/2022_Aug/bd3c96c0f17e779327cb3c4f63e8ef65.png)
Input File: Parasite Inc. - Follow The Blind.mp3
Channels : 2
Sample Rate : 44100
Precision : 16-bit
Duration : 00:04:53.69 = 12951641 samples = 22026.6 CDDA sectors
File Size : 11.8M
Bit Rate : 321k
Sample Encoding: MPEG audio (layer I, II or III)
Comments :
Title=Follow the Blind
Artist=Parasite Inc.



Register


Go to the top of the page
  Insert nick Quick quote
+Quote Post
 
Start new topic
Replies (1 - 1)
post Aug 10 2022, 07:33:08
Post #2

к приему виски готов
*********
Group: Металариец
Posts: 916
Releases: 3
From: Украина
On Forums: 13 years 9 months
Thanks: 543 time(s)
Ukraine


прошлые 2 альбома нравились, новый жду, хотя по трем песенкам с него ощущения неоднозначные (IMG:style_emoticons/default/13.gif)


Thanks:
(1) Andrew,
Go to the top of the page
  Insert nick Quick quote
+Quote Post

Reply to this topicStart new topic
2 User(s) are reading this topic (2 Guests and 0 Anonymous Users)
0 Members:

 



- Lo-Fi Version Support form
Copyrights and abuse reports form
Time is now: 27th November 2022 - 03:27:03