Welcome Guest ( Log In | Register )

Объявления

* gmail.com упорно продолжает считать почту с нас "unsolicited" и отбивает в том числе и письма активации, поэтому просьба использовать альтернативные почтовые ящики.
------------
* gmail.com continues reject all mail from us as "unsolicited" (activation mails too) therefore please use alternate mail servers.

> И неформату есть предел.

Рэп/хип-хоп/шансон/поп удаляются. Для них есть свои порталы.

> Sick Seed - Power Play (2017), Power Electronics
post Aug 10 2022, 18:54:39
Post #1

Пять Литров
*****
Group: Металариец
Posts: 417
Releases: 0
On Forums: 1 year 9 months
Thanks: 953 time(s)
Russian Federation


(IMG:http://metalarea.org/images/audiocovers/2022_Aug/acov_tid368146_thumb.jpg)

*Artist: Sick Seed
*Album: Power Play
*Year: 2017
*Genre: Power Electronics
*Country: Finland (IMG:http://metalarea.org/forum/style_images/flags/Finland.png)
*Format: mp3@CBR320kbps
*Size: 82MB

Tracklist:
1. Remarkable Man 4:51
2. The Fourth Way 7:01
3. G 3:24
4. Harmonious Development Of Man By Psychological Abuse 3:03
5. Harmonious Development Of Man By Sexual Abuse 5:36
6. The Institute 6:09
7. Beelzebub 2:43
8. Patricide 7:38
******************************
Total playing time: 40:25

youtube

Extended info
2017. Filth And Violence


Technical info
(IMG:http://metalarea.org/images/spectrogram/2022_Aug/23aead8d476a388dd773b234579535ba.png)
Input File: 2. The Fourth Way.mp3
Channels : 2
Sample Rate : 44100
Precision : 16-bit
Duration : 00:07:01.27 = 18578051 samples = 31595.3 CDDA sectors
File Size : 16.9M
Bit Rate : 321k
Sample Encoding: MPEG audio (layer I, II or III)
Comments :
Title=The Fourth Way
Artist=Sick Seed
Album=Power Play
Tracknumber=02
Year=2017
Genre=Power Electronics/Noise



Register


Go to the top of the page
  Insert nick Quick quote
+Quote Post
 
Start new topic
Replies (1 - 7)
post Aug 14 2022, 12:42:45
Post #2

Правь статус, ####!111
**************
Group: Металариец
Posts: 6,900
Releases: 0
On Forums: 8 years 3 months
Thanks: 4314 time(s)
Russian Federation


что за дядя на обложке?
Go to the top of the page
  Insert nick Quick quote
+Quote Post
post Aug 14 2022, 13:22:47
Post #3

Пять Литров
*****
Group: Металариец
Posts: 417
Releases: 0
On Forums: 1 year 9 months
Thanks: 953 time(s)
Russian Federation


ЦИТАТА(ent404 @ Aug 14 2022, 15:42:45) *
что за дядя на обложке?

Георгий Гурджиев. Честно говоря, хз вообще кто это и чем знаменит.
Go to the top of the page
  Insert nick Quick quote
+Quote Post
post Aug 14 2022, 13:23:46
Post #4

Правь статус, ####!111
**************
Group: Металариец
Posts: 55,976
Releases: 1200
On Forums: 14 years 11 months
Thanks: 54831 time(s)
Russian Federation


greyhound

https://ru.wikipedia.org/wiki/%D0%93%D1%83%...%B2%D0%B8%D1%87


Thanks:
(1) ent404,
Go to the top of the page
  Insert nick Quick quote
+Quote Post
post Aug 14 2022, 14:43:52
Post #5

Пять Литров
*****
Group: Металариец
Posts: 417
Releases: 0
On Forums: 1 year 9 months
Thanks: 953 time(s)
Russian Federation


ЦИТАТА(vosmidesijatye @ Aug 14 2022, 16:23:46) *
greyhound

Ну да, а то меня в гугле забанили (IMG:style_emoticons/default/21.gif)

Чёт я тупанул со ссылкой на превью, в общем, вот:
Go to the top of the page
  Insert nick Quick quote
+Quote Post
post Dec 4 2023, 15:45:38
Post #6

Три Литра
***
Group: Завсегдатай
Posts: 232
Releases: 0
On Forums: 2 years 5 months
Thanks: 76 time(s)
Russian Federation


ЦИТАТА(greyhound @ Aug 14 2022, 17:22:47) *
Георгий Гурджиев. Честно говоря, хз вообще кто это и чем знаменит.

Therion про него песни писал
Go to the top of the page
  Insert nick Quick quote
+Quote Post
post Dec 4 2023, 17:52:39
Post #7

Пять Литров
*****
Group: Металариец
Posts: 417
Releases: 0
On Forums: 1 year 9 months
Thanks: 953 time(s)
Russian Federation


ЦИТАТА(Izverg @ Dec 4 2023, 18:45:38) *
Therion про него песни писал

Я Therion последний раз двадцать лет назад слушал и никогда не задумывался о чём они свои песни пишут.


Thanks:
Go to the top of the page
  Insert nick Quick quote
+Quote Post
post Dec 4 2023, 17:57:02
Post #8

Правь статус, ####!111
**************
Group: Металариец
Posts: 55,976
Releases: 1200
On Forums: 14 years 11 months
Thanks: 54831 time(s)
Russian Federation


ЦИТАТА(greyhound @ Dec 4 2023, 19:52:39) *
Я Therion последний раз двадцать лет назад слушал и никогда не задумывался о чём они свои песни пишут.


Всегда щитал что они про всякий фенезийный там мирок и прочее мифологическое...
Go to the top of the page
  Insert nick Quick quote
+Quote Post

Reply to this topicStart new topic
1 User(s) are reading this topic (1 Guests and 0 Anonymous Users)
0 Members:

 



- Lo-Fi Version Support form
Copyrights and abuse reports form
Time is now: 26th May 2024 - 19:07:24