Welcome Guest ( Log In | Register )

> Carrion Vael - Abhorrent Obsessions (2022), Melodic Death Metal
post Aug 11 2022, 11:43:57
Post #1

Serial Uploader
Group Icon
Group: V.I.P
Posts: 39,314
Releases: 37449
From: Lithuania
On Forums: 14 years 5 months
Thanks: 469549 time(s)
Lithuania


(IMG:https://metalarea.org/images/audiocovers/2022_Aug/acov_tid368169_thumb.jpg)

*Artist: Carrion Vael
*Album: Abhorrent Obsessions
*Year: 2022
*Genre: Melodic Death Metal
*Country: United States (IMG:https://metalarea.org/forum/style_images/flags/United%20States.png)
*Format: mp3@CBR320kbps
*Size: 90MB

Tracklist:
1. Wings of Deliverance 06:08
2. The Devil in Me 04:11
3. King of the Rhine 04:40
4. Kentucky Fried Strangulation 04:22
5. Tithes of Forbearance 05:34
6. Disturbia 04:42
7. Malleus Malificarum 04:06
8. The Paint Shop 05:00
******************************
Total playing time: 38:43





(IMG:https://metalarea.org/images/youtube.png)

Technical info
(IMG:https://metalarea.org/images/spectrogram/2022_Aug/a827ac96841d29963c6670d204366c52.png)
Input File: 02 - The Devil in Me.mp3
Channels : 2
Sample Rate : 44100
Precision : 16-bit
Duration : 00:04:11.00 = 11069100 samples = 18825 CDDA sectors
File Size : 10.3M
Bit Rate : 327k
Sample Encoding: MPEG audio (layer I, II or III)
Comments :
Title=The Devil in Me
Artist=Carrion Vael
Album=Abhorrent Obsessions
Tracknumber=2
Year=2022-08-12
Genre=Metal
Discnumber=1



Register


Go to the top of the page
  Insert nick Quick quote
+Quote Post
 
Start new topic
Replies (1 - 6)
post Aug 11 2022, 19:16:27
Post #2

Тридцать три года на борту "тяжёлого" крейсера
**************
Group: Металариец
Posts: 2,965
Releases: 0
From: Питер
On Forums: 15 years 5 months
Thanks: 941 time(s)
Russian Federation


А задорные парни. Поднял дискографию - всё очень достойно. Несколько однообразно, но кайфово


Go to the top of the page
  Insert nick Quick quote
+Quote Post
post Aug 13 2022, 09:09:00
Post #3

Common dweller of hell
**************
Group: Металариец
Posts: 4,497
Releases: 12
From: Dnipro
On Forums: 14 years 4 months
Thanks: 1781 time(s)
Ukraine


Melodic Deathcore


Thanks:
Go to the top of the page
  Insert nick Quick quote
+Quote Post
post Aug 13 2022, 10:19:54
Post #4

Правь статус, ####!111
**************
Group: Металариец
Posts: 4,189
Releases: 1
From: Рейх
On Forums: 16 years 3 months
Thanks: 1015 time(s)
Ukraine


The Black Dahlia Murder (IMG:style_emoticons/default/metaler.gif) стаф
Go to the top of the page
  Insert nick Quick quote
+Quote Post
post Aug 13 2022, 12:10:34
Post #5

Правь статус, ####!111
**************
Group: Металариец
Posts: 51,960
Releases: 957
On Forums: 13 years 6 months
Thanks: 48774 time(s)
Russian Federation


ЦИТАТА(smes @ Aug 13 2022, 12:19:54) *
The Black Dahlia Murder (IMG:style_emoticons/default/metaler.gif) стаф


Макс, фас (IMG:style_emoticons/default/1488.gif)
Go to the top of the page
  Insert nick Quick quote
+Quote Post
post Aug 15 2022, 18:44:45
Post #6

MDM-Thrash Metal
**************
Group: Металариец
Posts: 11,482
Releases: 1602
From: Одесса
On Forums: 15 years 3 months
Thanks: 37793 time(s)
Ukraine


ЦИТАТА(isvili @ Aug 13 2022, 11:09:00) *
Melodic Deathcore

(IMG:style_emoticons/default/dooo.gif)

ЦИТАТА(sadmannn @ Aug 11 2022, 21:16:27) *
Несколько однообразно

(IMG:style_emoticons/default/dooo.gif) Как по мне, так уж слишком однообразно. И да, МДМа здесь нет вообще.
Go to the top of the page
  Insert nick Quick quote
+Quote Post
post Aug 22 2022, 11:30:02
Post #7

Old School Metal
**************
Group: Металариец
Posts: 4,638
Releases: 0
From: г. Минск
On Forums: 13 years 8 months
Thanks: 12610 time(s)
Belarus


Lossless: FLAC (tracks)
Register


Thanks:
(1) wreak,
Go to the top of the page
  Insert nick Quick quote
+Quote Post

Reply to this topicStart new topic
2 User(s) are reading this topic (2 Guests and 0 Anonymous Users)
0 Members:

 



- Lo-Fi Version Support form
Copyrights and abuse reports form
Time is now: 3rd December 2022 - 17:12:42