Welcome Guest ( Log In | Register )

> Releases Upload / Добавление релизов

Добавить релиз тут / Click here to add release
Рекомендованные обменники / Recommended file shares

> Aronious - Irkalla (2022), Progressive/Technical Death Metal
post Aug 11 2022, 11:49:23
Post #1

Serial Uploader
Group Icon
Group: V.I.P
Posts: 38,932
Releases: 37068
From: Lithuania
On Forums: 14 years 3 months
Thanks: 463030 time(s)
Lithuania


(IMG:https://metalarea.org/images/audiocovers/2022_Aug/acov_tid368170_thumb.jpg)

*Artist: Aronious
*Album: Irkalla
*Year: 2022
*Genre: Progressive/Technical Death Metal
*Country: United States (IMG:https://metalarea.org/forum/style_images/flags/United%20States.png)
*Format: mp3@CBR320kbps
*Size: 99MB

Tracklist:
1. Ananaki 01:13
2. Decent of Innana 05:37
3. Nincubura 06:20
4. Ereshkigal 06:58
5. Enkidu 05:28
6. Elu Ultu Irkalla 06:59
7. Negeltu 06:28
8. Warkanum 01:23
******************************
Total playing time: 40:26


Preview 2

(IMG:https://metalarea.org/images/youtube.png)

Technical info
(IMG:https://metalarea.org/images/spectrogram/2022_Aug/f395993d27cdd1f9a8f62529546d0223.png)
Input File: 02 - Descent of Inanna.mp3
Channels : 2
Sample Rate : 44100
Precision : 16-bit
Duration : 00:05:37.00 = 14861700 samples = 25275 CDDA sectors
File Size : 14.3M
Bit Rate : 339k
Sample Encoding: MPEG audio (layer I, II or III)
Comments :
Title=Descent of Inanna
Artist=Aronious
Album=Irkalla
Tracknumber=2/8
Year=2022
Discnumber=1/1



Register


Go to the top of the page
  Insert nick Quick quote
+Quote Post
 
Start new topic
Replies (1 - 6)
post Aug 12 2022, 06:14:58
Post #2

практики шума одухотворяющего
**************
Group: Металариец
Posts: 3,505
Releases: 120
From: хроник дисмембера
On Forums: 4 years 8 months
Thanks: 5465 time(s)
Russian Federation


По прошлому альбому было предположение, что эти Анунаки ластоногие что-то строчат про нас с вами, дорогие друзья, на свою родную Нибиру. Делают это совсем бессовестно, неприкрыто используя "человеческую" речь и работая в звуковом диапазоне, доступном нашему уху. Что они там тарахтят - не понятно, всё равно логические принципы, на которых основываются их методы шифрования, нам не известны.


Thanks:
(2) AHBAnep, cesar,
Go to the top of the page
  Insert nick Quick quote
+Quote Post
post Aug 12 2022, 13:07:30
Post #3

Осторожно, страдаю тяжёлой музыкальной зависимостью!
**********
Group: Металариец
Posts: 1,026
Releases: 8
From: Санкт-Петербург
On Forums: 15 years 6 months
Thanks: 409 time(s)
Russian Federation


Ждал этот альбом как второго пришествия Христа) Уже успел послушать на ютубе вчера - ожидаемо просто бомба. Большой шанс что альбом года для меня, а год-то пока получается очень крутым.


Thanks:
(1) cesar,
Go to the top of the page
  Insert nick Quick quote
+Quote Post
post Aug 14 2022, 10:37:01
Post #4

Old School Metal
**************
Group: Металариец
Posts: 4,581
Releases: 0
From: г. Минск
On Forums: 13 years 6 months
Thanks: 12241 time(s)
Belarus


Lossless: FLAC (tracks)
Register


Thanks:
Go to the top of the page
  Insert nick Quick quote
+Quote Post
post Aug 14 2022, 13:17:24
Post #5

Правь статус, ####!111
**************
Group: Металариец
Posts: 2,164
Releases: 0
On Forums: 13 years 6 months
Thanks: 887 time(s)
Antarctica


Мегой можно пользоваться только с платным аккаунтом. Она уже неюзабельна. Хотел скачать альбом - хрен мне. Еле нашёл на просторах инета ссылку.

Прослушал новый и предыдущий. Новый показался более доступным и стандартным, нежели предыдущий.
2020-й в своё время показался слишком замудрёным, сейчас норм зашёл.
Go to the top of the page
  Insert nick Quick quote
+Quote Post
post Sep 23 2022, 00:36:51
Post #6

Маньяк
**********
Group: Металариец
Posts: 1,237
Releases: 10
On Forums: 13 years 8 months
Thanks: 172 time(s)
Germany


Please, re-upload.
Go to the top of the page
  Insert nick Quick quote
+Quote Post
post Sep 23 2022, 14:31:45
Post #7

Добрый
**************
Group: Металариец
Posts: 5,555
Releases: 0
On Forums: 4 years 2 months
Thanks: 16289 time(s)
Russian Federation


94 mb/320 kbps
Register


Thanks:
(1) deathic,
Go to the top of the page
  Insert nick Quick quote
+Quote Post

Reply to this topicStart new topic
2 User(s) are reading this topic (2 Guests and 0 Anonymous Users)
0 Members:

 



- Lo-Fi Version Support form
Copyrights and abuse reports form
Time is now: 25th September 2022 - 20:47:44