Welcome Guest ( Log In | Register )

> И неформату есть предел.

Рэп/хип-хоп/шансон/поп удаляются. Для них есть свои порталы.

 
Reply to this topicStart new topic
> Yrsel - Nahash (2017), Drone/Dark Ambient
post Aug 17 2022, 08:46:59
Post #1

Правь статус, ####!111
**************
Group: Металариец
Posts: 2,147
Releases: 270
From: Omsk, Siberia
On Forums: 13 years 6 months
Thanks: 5407 time(s)
Russian Federation


(IMG:http://metalarea.org/images/audiocovers/2022_Aug/acov_tid368356_thumb.jpg)

*Artist: Yrsel
*Album: Nahash
*Year: 2017
*Genre: Drone/Dark Ambient
*Country: International (IMG:http://metalarea.org/forum/style_images/flags/International.png)
*Format: mp3@CBR320kbps
*Size: 88MB

Tracklist:
1. Nihilisme 07:48
2. Les Paroles D'Un Maudit 06:48
3. La Pitié Des Bêtes 05:34
4. Les Spectres 04:21
5. La Prophétie Du Squelette 06:13
6. Un Paria 07:30
******************************
Total playing time: 38:16




Extended info
This is the fourth full-length of a Swedish-French duo consisting of Carl-Johan Larsgården and Julien Louvet.

Released on CS by 213 Records and Tuguska Label. Released on Digital independently.


Technical info
(IMG:http://metalarea.org/images/spectrogram/2022_Aug/e124abe1e87b5d451065eb892d1083f2.png)
Input File: 04 Les Spectres.mp3
Channels : 2
Sample Rate : 44100
Precision : 16-bit
Duration : 00:04:21.87 = 11548247 samples = 19639.9 CDDA sectors
File Size : 10.5M
Bit Rate : 322k
Sample Encoding: MPEG audio (layer I, II or III)
Comments :
Title=Les Spectres
Artist=Yrsel
Album=Nahash
Tracknumber=4
Year=2017
Genre=Drone/Ambient



Register


Thanks:
Go to the top of the page
  Insert nick Quick quote
+Quote Post

Reply to this topicStart new topic
1 User(s) are reading this topic (1 Guests and 0 Anonymous Users)
0 Members:

 



- Lo-Fi Version Support form
Copyrights and abuse reports form
Time is now: 25th September 2022 - 07:08:17