Welcome Guest ( Log In | Register )

Объявления

* gmail.com упорно продолжает считать почту с нас "unsolicited" и отбивает в том числе и письма активации, поэтому просьба использовать альтернативные почтовые ящики.
------------
* gmail.com continues reject all mail from us as "unsolicited" (activation mails too) therefore please use alternate mail servers.
> Profecía - 1983-1986 (2022), Heavy/Doom Metal
post Aug 17 2022, 17:33:58
Post #1

Правь статус, ####!111
**************
Group: Металариец
Posts: 7,559
Releases: 6913
From: Одесса
On Forums: 15 years 11 months
Thanks: 80533 time(s)
Ukraine


(IMG:http://metalarea.org/images/audiocovers/2022_Aug/acov_tid368369_thumb.jpg)

*Artist: Profecía
*Album: 1983-1986
*Year: 2022
*Genre: Heavy/Doom Metal
*Country: Colombia (IMG:http://metalarea.org/forum/style_images/flags/Colombia.png)
*Format: mp3@VBR258kbps
*Size: 98MB

Tracklist:
1. Overtura 04:24
2. Revolución 05:02
3. Sangre del olvido 03:26
4. Despierta 03:44
5. Reencarnación de la luna / Los maestros del fuego 06:37
6. Sigues en mí 04:28
7. Siempre 04:01
8. Porquería material 05:49
9. Magia negra 03:59
10. B-404 05:18
11. Tiempo de fuego 03:13
******************************
Total playing time: 50:01

Extended info
Line - up:

El Conde - Bass
Jorge - Drums
Nando (R.I.P. 1993) - Guitars (rhythm) (ex-Sacrilegio)
Ricardo Amaya - Guitars (lead)
Piolín - Vocals (Reencarnación, ex-HP.HC)


Technical info
(IMG:http://metalarea.org/images/spectrogram/2022_Aug/65ae8c5f7b135ae5386efdf0a13c6aa2.png)
Input File: 06-profecia-sigues_en_mi.mp3
Channels : 2
Sample Rate : 44100
Precision : 16-bit
Duration : 00:04:28.67 = 11848303 samples = 20150.2 CDDA sectors
File Size : 8.27M
Bit Rate : 246k
Sample Encoding: MPEG audio (layer I, II or III)
Comments :
Title=Sigues en Mi
Artist=Profecia
Album=1983-1986
Tracknumber=6
Year=2022-00-00
Genre=Heavy | Doom Metal



Register


Go to the top of the page
  Insert nick Quick quote
+Quote Post
 
Start new topic
Replies (1 - 1)
post Apr 2 2024, 02:41:45
Post #2

Четыре Литра
****
Group: Металариец
Posts: 334
Releases: 0
On Forums: 14 years 8 months
Thanks: 21 time(s)
Croatia


Please re-up this (IMG:style_emoticons/default/pray.gif)

Go to the top of the page
  Insert nick Quick quote
+Quote Post

Reply to this topicStart new topic
1 User(s) are reading this topic (1 Guests and 0 Anonymous Users)
0 Members:

 



- Lo-Fi Version Support form
Copyrights and abuse reports form
Time is now: 25th May 2024 - 17:36:10