Welcome Guest ( Log In | Register )

Объявления

* gmail.com упорно продолжает считать почту с нас "unsolicited" и отбивает в том числе и письма активации, поэтому просьба использовать альтернативные почтовые ящики.
------------
* gmail.com continues reject all mail from us as "unsolicited" (activation mails too) therefore please use alternate mail servers.
> Grave Bathers - Rock 'n' Roll Fetish (2022), Stoner/Doom Metal
post Aug 17 2022, 18:07:54
Post #1

Правь статус, ####!111
**************
Group: Металариец
Posts: 55,796
Releases: 1189
On Forums: 14 years 10 months
Thanks: 54545 time(s)
Russian Federation


(IMG:https://metalarea.org/images/audiocovers/2022_Aug/acov_tid368370_thumb.jpg)

*Artist: Grave Bathers
*Album: Rock 'n' Roll Fetish
*Year: 2022
*Genre: Stoner/Doom Metal
*Country: United States (IMG:https://metalarea.org/forum/style_images/flags/United%20States.png)
*Format: mp3@CBR320kbps
*Size: 189MB

Tracklist:
1. Ghost 'Em All 06:02
2. Brain Thief 06:47
3. The Mole 07:39
4. Tarman Cometh 05:51
5. Rock´N' Roll Fetish 04:58
6. Mongoloid Supreme 06:49
7. Blood Money 05:18
8. Vampire Of The Rock / Operator 10:42
9. Nordic Funeral 07:55
10. Taser Shields 03:26
11. Devil's Bride 08:14
12. Ape-Like Thing 08:01
******************************
Total playing time: 1:21:42



Technical info
(IMG:https://metalarea.org/images/spectrogram/2022_Aug/3dfb30f88b704cecfec887a379947b04.png)
Input File: 01 - Ghost \'em All.mp3
Channels : 2
Sample Rate : 44100
Precision : 16-bit
Duration : 00:06:02.00 = 15964200 samples = 27150 CDDA sectors
File Size : 14.7M
Bit Rate : 324k
Sample Encoding: MPEG audio (layer I, II or III)
Comments :
Title=Ghost 'em All
Artist=Grave Bathers
Album=Rock 'n' Roll Fetish
Tracknumber=1
Year=2022-08-05
Genre=79
Discnumber=1



Register


Go to the top of the page
  Insert nick Quick quote
+Quote Post
 
Start new topic
Replies (1 - 6)
post Aug 18 2022, 11:10:11
Post #2

Правь статус, ####!111
**************
Group: Металариец
Posts: 55,796
Releases: 1189
On Forums: 14 years 10 months
Thanks: 54545 time(s)
Russian Federation


Щииикаааарно (с). Экспериментально-экспрессивный, с крутым вокалом, драйвовыми стоунер риффами и вкраплениями чад-угар-ового рокенрола (IMG:style_emoticons/default/20.gif) На фоне мильярдов однотипно-стереотипных стоунер команд, сабж - глоток свежего воздуха. Всем любителям нетривиального качественного стоунера - велкам!
Go to the top of the page
  Insert nick Quick quote
+Quote Post
post Aug 19 2022, 17:02:15
Post #3

Слесаръ 6-го разряда.
******
Group: Металариец
Posts: 664
Releases: 388
From: Беларусь, Минск.
On Forums: 12 years 4 months
Thanks: 3892 time(s)
Belarus


Действительно своеобразный самородок. Большое спасибо за возможность ознакомиться с материалом.


Thanks:
Go to the top of the page
  Insert nick Quick quote
+Quote Post
post Aug 19 2022, 18:24:42
Post #4

Правь статус, ####!111
**************
Group: Металариец
Posts: 55,796
Releases: 1189
On Forums: 14 years 10 months
Thanks: 54545 time(s)
Russian Federation


Есть флак, обращайтесь.
Go to the top of the page
  Insert nick Quick quote
+Quote Post
post Aug 21 2022, 20:53:32
Post #5

Маньяк
**********
Group: Металариец
Posts: 1,192
Releases: 0
From: Isla de Margarita, Venezuela
On Forums: 5 years 3 months
Thanks: 375 time(s)
Venezuela


O-MAI-GA que álbum tan bueno!!!!!! very, very, very good!!!!!! (IMG:style_emoticons/default/spitggis0.gif) (IMG:style_emoticons/default/metaler.gif) (IMG:style_emoticons/default/pray.gif) (IMG:style_emoticons/default/pray.gif) (IMG:style_emoticons/default/pray.gif) (IMG:style_emoticons/default/pray.gif)
Go to the top of the page
  Insert nick Quick quote
+Quote Post
post Aug 23 2022, 13:10:21
Post #6

####!111
**************
Group: Металариец
Posts: 4,763
Releases: 146
From: The Mountain Of DOOM
On Forums: 16 years 6 months
Thanks: 7014 time(s)
Russian Federation


ЦИТАТА(vosmidesijatye @ 18th August 2022 - 14:10:11) *
сабж - глоток свежего воздуха

звучание оригинальное,
риффы такие же избитые как весь жанр, а вставочки рочка из 60-х не спасают


Thanks:
(1) cesar,
Go to the top of the page
  Insert nick Quick quote
+Quote Post
post Aug 23 2022, 14:51:58
Post #7

brutalcesar
**************
Group: Металариец
Posts: 18,786
Releases: 77
From: Рязань
On Forums: 15 years 3 months
Thanks: 11247 time(s)
Russian Federation


Спасибо, но нет
В целом соглашусь с отзывом выше
Go to the top of the page
  Insert nick Quick quote
+Quote Post

Reply to this topicStart new topic
1 User(s) are reading this topic (1 Guests and 0 Anonymous Users)
0 Members:

 



- Lo-Fi Version Support form
Copyrights and abuse reports form
Time is now: 23rd April 2024 - 15:20:01