Welcome Guest ( Log In | Register )

> Sun Eater - Vermin (2022), Technical Death Metal (D4)
post Aug 18 2022, 09:49:43
Post #1

Правь статус, ####!111
**************
Group: Металариец
Posts: 30,921
Releases: 22793
From: Г.Харьков
On Forums: 10 years 6 months
Thanks: 476889 time(s)
Unknown


(IMG:https://metalarea.org/images/audiocovers/2022_Aug/acov_tid368390_thumb.jpg)

*Artist: Sun Eater
*Album: Vermin
*Year: 2022
*Genre: Technical Death Metal
*Country: France (IMG:https://metalarea.org/forum/style_images/flags/France.png)
*Format: mp3@CBR320kbps
*Size: 78MB

Tracklist:
01. The Harbinger (feat. Loic Gillet)
02. Cosmic Hegemony (feat. Will Willcox)
03. Throne of Lies (feat. Alix Gueneau)
04. Chalice of Inverted Verses (feat. Jason Lambert)
05. Vermin (feat. Charles Pierron and Daniel Bramley)
06. Nameless Cults (feat. Clement Henry)
07. Desecrate (feat. Clement Henry)
08. Shroud of Dreamt Sins (feat. Marion Volle)
******************************
Total playing time: 33:29




Extended info
Clément Dellis Vocals, Guitars, Bass, Drum programming


Technical info
(IMG:https://metalarea.org/images/spectrogram/2022_Aug/ccf5c8378e50a7e35a13e0d996e573c3.png)
Input File: 08. Shroud of Dreamt Sins (feat. Marion Volle).mp3
Channels : 2
Sample Rate : 44100
Precision : 16-bit
Duration : 00:04:21.97 = 11552877 samples = 19647.8 CDDA sectors
File Size : 10.6M
Bit Rate : 325k
Sample Encoding: MPEG audio (layer I, II or III)
Comments :
Title=Shroud of Dreamt Sins (feat. Marion Volle)
Artist=Sun Eater
Album=Vermin
Tracknumber=8
Year=2022
Genre=Technial Death



Register


Go to the top of the page
  Insert nick Quick quote
+Quote Post
 
Start new topic
Replies (1 - 3)
post Aug 19 2022, 08:18:04
Post #2

Мегаманьяк
***********
Group: Металариец
Posts: 1,947
Releases: 1
From: APATIN, SERBIA, АПАТИН, СЕРБИЯ
On Forums: 15 years 1 month
Thanks: 5735 time(s)



Flac

Register


Thanks:
Go to the top of the page
  Insert nick Quick quote
+Quote Post
post Sep 6 2022, 14:24:12
Post #3

Austenite
**************
Group: Металариец
Posts: 3,182
Releases: 1
From: Менск
On Forums: 12 years 2 weeks
Thanks: 1432 time(s)
Madagascar


Amazing Bru DM 10/10
Go to the top of the page
  Insert nick Quick quote
+Quote Post
post Sep 7 2022, 00:29:35
Post #4

Правь статус, ####!111
**************
Group: Металариец
Posts: 2,174
Releases: 0
On Forums: 13 years 9 months
Thanks: 893 time(s)
Antarctica


Ну неплохо, 6/10. Сыграно качественно, не топорно, но не зацепило.
Go to the top of the page
  Insert nick Quick quote
+Quote Post

Reply to this topicStart new topic
1 User(s) are reading this topic (1 Guests and 0 Anonymous Users)
0 Members:

 



- Lo-Fi Version Support form
Copyrights and abuse reports form
Time is now: 3rd December 2022 - 00:17:04