Welcome Guest ( Log In | Register )

> И неформату есть предел.

Рэп/хип-хоп/шансон/поп удаляются. Для них есть свои порталы.

 
Reply to this topicStart new topic
> Apocryphos - Phantoms Received (2022), Dark Ambient
post Aug 18 2022, 17:35:28
Post #1

Правь статус, ####!111
**************
Group: Металариец
Posts: 3,492
Releases: 1979
On Forums: 11 years 10 months
Thanks: 38110 time(s)
Russian Federation


(IMG:https://metalarea.org/images/audiocovers/2022_Aug/acov_tid368425_thumb.jpg)

*Artist: Apocryphos
*Album: Phantoms Received
*Year: 2022
*Genre: Dark Ambient
*Country: United States (IMG:https://metalarea.org/forum/style_images/flags/United%20States.png)
*Format: mp3@CBR320kbps
*Size: 105MB

Tracklist:
1.Sisyphean 08:59
2.Uråldrig Sorg 06:04
3.Nightside Consternation 06:32
4.A Phantom Received 11:44
5.Child of the Charnel House 05:20
6.Where We've Bled and Anchored 07:36
******************************
Total playing time: 46:15



Technical info
(IMG:https://metalarea.org/images/spectrogram/2022_Aug/53d4ebb16506ad29e2c3ca408ebc8f72.png)
Input File: 05-Child of the Charnel House.mp3
Channels : 2
Sample Rate : 44100
Precision : 16-bit
Duration : 00:05:20.07 = 14115219 samples = 24005.5 CDDA sectors
File Size : 13.0M
Bit Rate : 324k
Sample Encoding: MPEG audio (layer I, II or III)
Comments :
Title=Child of the Charnel House
Artist=Apocryphos
Album=Phantoms Received
Tracknumber=05
Year=2022
Genre=Dark Ambient



Register


Go to the top of the page
  Insert nick Quick quote
+Quote Post

Reply to this topicStart new topic
1 User(s) are reading this topic (1 Guests and 0 Anonymous Users)
0 Members:

 



- Lo-Fi Version Support form
Copyrights and abuse reports form
Time is now: 25th September 2022 - 08:50:57