Welcome Guest ( Log In | Register )

> Grave Syndrome - Dead Planet Dystopia (2022), Brutal Death Metal
post Aug 24 2022, 05:15:08
Post #1

Правь статус, ####!111
**************
Group: Металариец
Posts: 4,051
Releases: 2520
On Forums: 12 years 1 week
Thanks: 46218 time(s)
Russian Federation


(IMG:https://metalarea.org/images/audiocovers/2022_Aug/acov_tid368562_thumb.jpg)

*Artist: Grave Syndrome
*Album: Dead Planet Dystopia
*Year: 2022
*Genre: Brutal Death Metal
*Country: United States (IMG:https://metalarea.org/forum/style_images/flags/United%20States.png)
*Format: mp3@CBR320kbps
*Size: 68MB

Tracklist:
01.Stricken by Absolute Nothingness/The Great Freeze 01:05
02.Relativistic Quantum Suicide 03:19
03.Exposed Entrails from Violent Lunar Explosions 02:20
04.Hymns of What Once Was 02:27
05.Warping Effects of Black Body Radiation 04:18
06.Oceans of the Blood of the Innocent 02:53
07.The Agonizing Vacuity of Deep Space 03:07
08.Suffocating Thoughts of Entropy 04:43
09.Dead Planet Dystopia 04:03
10.Emergency Broadcast (The End) 02:03
******************************
Total playing time: 30:18

(IMG:https://metalarea.org/images/youtube.png)

Technical info
(IMG:https://metalarea.org/images/spectrogram/2022_Aug/f65e67b504c64c01cae1589a53a672bd.png)
Input File: 03 - Exposed Entrails From Violent Lunar Explosions.mp3
Channels : 2
Sample Rate : 44100
Precision : 16-bit
Duration : 00:02:20.52 = 6197064 samples = 10539.2 CDDA sectors
File Size : 5.74M
Bit Rate : 327k
Sample Encoding: MPEG audio (layer I, II or III)
Comments :
Title=Exposed Entrails From Violent Lunar Explosions
Artist=Grave Syndrome
Album=Dead Planet Dystopia
Tracknumber=03
Year=2022
Genre=Brutal Death Metal



Register


Go to the top of the page
  Insert nick Quick quote
+Quote Post
 
Start new topic
Replies (1 - 1)
post Sep 22 2022, 14:42:07
Post #2

Мегаманьяк
***********
Group: Металариец
Posts: 1,935
Releases: 1
From: APATIN, SERBIA, АПАТИН, СЕРБИЯ
On Forums: 15 years 1 month
Thanks: 5703 time(s)



Flac

Register


Thanks:
Go to the top of the page
  Insert nick Quick quote
+Quote Post

Reply to this topicStart new topic
1 User(s) are reading this topic (1 Guests and 0 Anonymous Users)
0 Members:

 



- Lo-Fi Version Support form
Copyrights and abuse reports form
Time is now: 27th November 2022 - 03:03:32