Welcome Guest ( Log In | Register )

> Amken - Passive Aggression (2022), Thrash Metal
post Aug 25 2022, 11:22:25
Post #1

Правь статус, ####!111
**************
Group: Металариец
Posts: 30,923
Releases: 22794
From: Г.Харьков
On Forums: 10 years 6 months
Thanks: 477015 time(s)
Unknown


(IMG:https://metalarea.org/images/audiocovers/2022_Aug/acov_tid368600_thumb.jpg)

*Artist: Amken
*Album: Passive Aggression
*Year: 2022
*Genre: Thrash Metal
*Country: Greece (IMG:https://metalarea.org/forum/style_images/flags/Greece.png)
*Format: mp3@CBR320kbps
*Size: 80MB

Tracklist:
1. The Underdogs 04:58
2. I Am the One 04:47
3. Dead Man's Land 04:35
4. The Li(f)e We Lead 04:01
5. Passive Aggression 04:17
6. Bliss 03:03
7. We Came from Nothing 04:31
8. Somewhere Past the Burning Sun 04:27
******************************
Total playing time: 34:39




Extended info
Giannis K. Guitars
Vanias A. Vocals, Guitars
Harris Zampoukos Drums
Dionisis Kiamos Bass



Technical info
(IMG:https://metalarea.org/images/spectrogram/2022_Aug/73394f7b419880acc899ad4843ec21b4.png)
Input File: 07 - We Came From Nothing.mp3
Channels : 2
Sample Rate : 44100
Precision : 16-bit
Duration : 00:04:30.00 = 11907000 samples = 20250 CDDA sectors
File Size : 10.9M
Bit Rate : 324k
Sample Encoding: MPEG audio (layer I, II or III)
Comments :
Title=We Came From Nothing
Artist=Amken
Album=Passive Aggression
Tracknumber=7
Year=2022-08-26
Genre=Rock
Discnumber=1



Register


Go to the top of the page
  Insert nick Quick quote
+Quote Post
 
Start new topic
Replies (1 - 6)
post Aug 26 2022, 12:40:52
Post #2

Common dweller of hell
**************
Group: Металариец
Posts: 4,497
Releases: 12
From: Dnipro
On Forums: 14 years 4 months
Thanks: 1781 time(s)
Ukraine


О-о-о-о, это знатные чуваки (IMG:style_emoticons/default/20.gif)
Не подвели, отличный альбом.


Thanks:
Go to the top of the page
  Insert nick Quick quote
+Quote Post
post Aug 29 2022, 13:21:37
Post #3

MDM-Thrash Metal
**************
Group: Металариец
Posts: 11,482
Releases: 1602
From: Одесса
On Forums: 15 years 3 months
Thanks: 37793 time(s)
Ukraine


Хороший добротный смачный треш! Очень похожи на коллег по цеху англичан Evile.
Go to the top of the page
  Insert nick Quick quote
+Quote Post
post Aug 29 2022, 17:45:55
Post #4

Old School Metal
**************
Group: Металариец
Posts: 4,638
Releases: 0
From: г. Минск
On Forums: 13 years 8 months
Thanks: 12610 time(s)
Belarus


Lossless: FLAC (tracks)
Register


Thanks:
(2) SAPOGi, Storky,
Go to the top of the page
  Insert nick Quick quote
+Quote Post
post Sep 3 2022, 19:28:33
Post #5

Семь Литров
*******
Group: Металариец
Posts: 746
Releases: 0
From: Одесса-мама
On Forums: 13 years 10 months
Thanks: 265 time(s)
Ukraine


Большое спасибо!
Такая музыка нужна народу! (IMG:style_emoticons/default/metaler.gif)


Thanks:
Go to the top of the page
  Insert nick Quick quote
+Quote Post
post Sep 12 2022, 13:22:02
Post #6
BAN
RO till
Dec 7 2022, 19:26:25



Нажористое трэшило. Плотно и со знанием дела набрасывают заеженные риффы греки; впрочем, в трэшхе это закономерность.
Go to the top of the page
  Insert nick Quick quote
+Quote Post
post Sep 13 2022, 10:13:22
Post #7

Austenite
**************
Group: Металариец
Posts: 3,182
Releases: 1
From: Менск
On Forums: 12 years 2 weeks
Thanks: 1432 time(s)
Madagascar


Отличный трэш, странно на БК мало покупок
Go to the top of the page
  Insert nick Quick quote
+Quote Post

Reply to this topicStart new topic
2 User(s) are reading this topic (2 Guests and 0 Anonymous Users)
0 Members:

 



- Lo-Fi Version Support form
Copyrights and abuse reports form
Time is now: 3rd December 2022 - 17:04:04