Welcome Guest ( Log In | Register )

> Silenced Within - Silenced Within (2022), Gothic Metal
post Aug 25 2022, 14:33:33
Post #1

Serial Uploader
Group Icon
Group: V.I.P
Posts: 39,289
Releases: 37423
From: Lithuania
On Forums: 14 years 5 months
Thanks: 469263 time(s)
Lithuania


(IMG:https://metalarea.org/images/audiocovers/2022_Aug/acov_tid368629_thumb.jpg)

*Artist: Silenced Within
*Album: Silenced Within
*Year: 2022
*Genre: Gothic Metal
*Country: United States (IMG:https://metalarea.org/forum/style_images/flags/United%20States.png)
*Format: mp3@CBR320kbps
*Size: 104MB

Tracklist:
01. Bittersweet 03:16
02. Puppet 03:15
03. Charade 03:12
04. Falling Away From Me 04:21
05. Hereafter 03:21
06. Ghost 03:05
07. Break the Bough 02:52
08. Say It 02:54
09. Magic 04:44
10. Time to Rise 04:07
11. Destiny 03:21
12. Lullaby 03:58
13. Nightmare 02:57
******************************
Total playing time: 45:23



Technical info
(IMG:https://metalarea.org/images/spectrogram/2022_Aug/30b0280185e16f92f99ba66713c48b9c.png)
Input File: 02 - Puppet.mp3
Channels : 2
Sample Rate : 44100
Precision : 16-bit
Duration : 00:03:15.00 = 8599500 samples = 14625 CDDA sectors
File Size : 7.88M
Bit Rate : 323k
Sample Encoding: MPEG audio (layer I, II or III)
Comments :
Title=Puppet
Artist=Silenced Within
Album=Silenced Within
Tracknumber=2
Year=2022
Discnumber=1



Register


Go to the top of the page
  Insert nick Quick quote
+Quote Post
 
Start new topic
Replies (1 - 1)
post Aug 27 2022, 01:19:54
Post #2

hearer & reader
**************
Group: Металариец
Posts: 10,442
Releases: 225
From: Moscow
On Forums: 15 years 2 months
Thanks: 12859 time(s)
Russian Federation




Thanks:
Go to the top of the page
  Insert nick Quick quote
+Quote Post

Reply to this topicStart new topic
2 User(s) are reading this topic (2 Guests and 0 Anonymous Users)
0 Members:

 



- Lo-Fi Version Support form
Copyrights and abuse reports form
Time is now: 30th November 2022 - 09:06:18