Welcome Guest ( Log In | Register )

Объявления

* gmail.com упорно продолжает считать почту с нас "unsolicited" и отбивает в том числе и письма активации, поэтому просьба использовать альтернативные почтовые ящики.
------------
* gmail.com continues reject all mail from us as "unsolicited" (activation mails too) therefore please use alternate mail servers.

> И неформату есть предел.

Рэп/хип-хоп/шансон/поп удаляются. Для них есть свои порталы.

> Long Distance Calling - Eraser (2022), Instrumental Post-Rock (D10)
post Aug 26 2022, 12:12:41
Post #1

21st Century Schizoid Man
**************
Group: Металариец
Posts: 8,452
Releases: 319
From: 1984
On Forums: 16 years 3 weeks
Thanks: 9424 time(s)
Unknown


(IMG:https://metalarea.org/images/audiocovers/2022_Aug/acov_tid368661_thumb.jpg)

*Artist: Long Distance Calling
*Album: Eraser
*Year: 2022
*Genre: Instrumental Post-Rock
*Country: Germany (IMG:https://metalarea.org/forum/style_images/flags/Germany.png)
*Format: mp3@CBR320kbps
*Size: 131MB

Tracklist:
01. Enter: Death Box 1:17
02. Blades 4:39
03. Kamilah 6:57
04. 500 Years 7:31
05. Sloth 7:23
06. Giants Leaving 3:28
07. Blood Honey 10:16
08. Landless King 6:27
09. Eraser 9:18
******************************
Total playing time: 57:16

(IMG:https://metalarea.org/images/youtube.png)
(IMG:https://metalarea.org/images/youtube.png)
(IMG:https://metalarea.org/images/youtube.png)
(IMG:https://metalarea.org/images/youtube.png)

Extended info
David Jordan – guitar
Janosch Rathmer – drums
Florian Füntmann – guitar
Jan Hoffmann – bass


Technical info
(IMG:https://metalarea.org/images/spectrogram/2022_Aug/74b01b3111750014e4afdb05ca935749.png)
Input File: 02. Blades.mp3
Channels : 2
Sample Rate : 44100
Precision : 16-bit
Duration : 00:04:38.59 = 12285731 samples = 20894.1 CDDA sectors
File Size : 11.1M
Bit Rate : 320k
Sample Encoding: MPEG audio (layer I, II or III)
Comments :
Title=Blades
Artist=Long Distance Calling
Album=Eraser
Tracknumber=2
Year=2022
Genre=Post Rock



Register


Go to the top of the page
  Insert nick Quick quote
+Quote Post
 
Start new topic
Replies (1 - 5)
post Aug 30 2022, 22:40:40
Post #2

https://rateyourmusic.com/~Ghostb
**************
Group: Металариец
Posts: 2,777
Releases: 0
From: Харьков
On Forums: 14 years 8 months
Thanks: 1383 time(s)
Ukraine


Почему-то мне ближе всего релизы 2013-2016 гг., где они с вокалом экспериментировали, следующие два довольно стандартны. Послушаем, что здесь.


Thanks:
(1) Yarri,
Go to the top of the page
  Insert nick Quick quote
+Quote Post
post Aug 30 2022, 22:48:05
Post #3

21st Century Schizoid Man
**************
Group: Металариец
Posts: 8,452
Releases: 319
From: 1984
On Forums: 16 years 3 weeks
Thanks: 9424 time(s)
Unknown


Всё так и есть, ранние они - очень крутые.


Thanks:
(1) Ghostb,
Go to the top of the page
  Insert nick Quick quote
+Quote Post
post Sep 1 2022, 23:41:20
Post #4

https://rateyourmusic.com/~Ghostb
**************
Group: Металариец
Posts: 2,777
Releases: 0
From: Харьков
On Forums: 14 years 8 months
Thanks: 1383 time(s)
Ukraine


А ведь неплохой альбом, в меру разнообразный как для жанра, использование духовых в нескольких треках очень понравилось. Нужно будет и парочку предыдущих переслушать) Но вокала (хотя бы эпизодического) мне все равно не хватает.


Thanks:
(1) BERZERK,
Go to the top of the page
  Insert nick Quick quote
+Quote Post
post Sep 8 2022, 11:54:42
Post #5

Восемь Литров
********
Group: Металариец
Posts: 878
Releases: 0
On Forums: 17 years 5 months
Thanks: 123 time(s)
Russian Federation


Довольно динамично для поста. Отличный материал.


Thanks:
(1) Ghostb,
Go to the top of the page
  Insert nick Quick quote
+Quote Post
post Oct 14 2022, 17:15:15
Post #6

Два Литра
**
Group: Завсегдатай
Posts: 168
Releases: 0
From: Тюмень
On Forums: 15 years 6 months
Thanks: 15 time(s)
Russian Federation


Одна из любимых пост-роковых групп. Обязательно к прослушиванию!
Go to the top of the page
  Insert nick Quick quote
+Quote Post

Reply to this topicStart new topic
2 User(s) are reading this topic (2 Guests and 0 Anonymous Users)
0 Members:

 



- Lo-Fi Version Support form
Copyrights and abuse reports form
Time is now: 30th May 2024 - 19:26:26