Welcome Guest ( Log In | Register )

 
Reply to this topicStart new topic
> Dodenbezweerder - Rehearsal August 2022 [demo] (2022), Atmospheric/Raw Black Metal (D5)
post Aug 27 2022, 01:07:24
Post #1

Правь статус, 616
**************
Group: Металариец
Posts: 10,604
Releases: 8622
From: 55°35’N 38°08’E
On Forums: 15 years 9 months
Thanks: 152879 time(s)
Russian Federation


(IMG:https://metalarea.org/images/audiocovers/2022_Aug/acov_tid368692_thumb.jpg)

*Artist: Dodenbezweerder
*Album: Rehearsal August 2022 [demo]
*Year: 2022
*Genre: Atmospheric/Raw Black Metal
*Country: Netherlands (IMG:https://metalarea.org/forum/style_images/flags/Netherlands.png)
*Format: mp3@CBR320kbps
*Size: 34MB

Tracklist:
1.Het Dodenrijk Gekroond 08:22
2.De Hemel Bazuinen 06:09
******************************
Total playing time: 14:31




Technical info
(IMG:https://metalarea.org/images/spectrogram/2022_Aug/cc4eb7be0878a9c262dfe866dbedfd2c.png)
Input File: 01 Het Dodenrijk Gekroond.mp3
Channels : 2
Sample Rate : 44100
Precision : 16-bit
Duration : 00:08:22.84 = 22175024 samples = 37712.6 CDDA sectors
File Size : 20.3M
Bit Rate : 322k
Sample Encoding: MPEG audio (layer I, II or III)
Comments :
Title=Het Dodenrijk Gekroond
Artist=dodenbezweerder
Album=Rehearsal august 2022
Tracknumber=1
Year=2022
Genre=Black Metal



Register


Go to the top of the page
  Insert nick Quick quote
+Quote Post

Reply to this topicStart new topic
1 User(s) are reading this topic (1 Guests and 0 Anonymous Users)
0 Members:

 



- Lo-Fi Version Support form
Copyrights and abuse reports form
Time is now: 14th April 2024 - 19:39:06