Welcome Guest ( Log In | Register )

> 

Здесь релизы с живыми прямыми ссылками на lossless

> Megadeth - The Sick, The Dying... And The Dead! (2022), Heavy/Thrash Metal
post Sep 1 2022, 13:29:14
Post #1

Правь статус, ####!111
**************
Group: Металариец
Posts: 31,377
Releases: 23137
From: Г.Харьков
On Forums: 10 years 8 months
Thanks: 486731 time(s)
Ukraine


(IMG:https://metalarea.org/images/audiocovers/2022_Sep/acov_tid368852_thumb.jpg)

*Artist: Megadeth
*Album: The Sick, The Dying... And The Dead!
*Year: 2022
*Genre: Heavy/Thrash Metal
*Country: United States (IMG:https://metalarea.org/forum/style_images/flags/United%20States.png)
*Format: mp3@CBR320kbps
*Size: 145MB

Tracklist:
01. The Sick, The Dying… And The Dead! 5:04
02. Life In Hell 4:12
03. Night Stalkers 6:38
04. Dogs Of Chernobyl 6:14
05. Sacrifice 4:08
06. Junkie 3:39
07. Psychopathy 1:20
08. Killing Time 5:13
09. Soldier On! 4:54
10. Célebutante 3:51
11. Mission To Mars 5:24
12. We’ll Be Back 4:29
13. Police Truck 2:29
14. This Planet’s On Fire (Burn In Hell) 5:04
******************************
Total playing time: 1:02:39



Extended info
Dirk Verbeuren Drums
Dave Mustaine Guitars, Vocals (lead)
Kiko Loureiro Guitars, Vocals (backing)


Technical info
(IMG:https://metalarea.org/images/spectrogram/2022_Sep/4aaa21a594e9013f78d90be657d5ef16.png)
Input File: 08 - Killing Time.mp3
Channels : 2
Sample Rate : 44100
Precision : 16-bit
Duration : 00:05:12.89 = 13798405 samples = 23466.7 CDDA sectors
File Size : 12.6M
Bit Rate : 323k
Sample Encoding: MPEG audio (layer I, II or III)
Comments :
Title=Killing Time
Artist=Megadeth
Album=The Sick, The Dying… And The Dead!
Tracknumber=8/14
Year=2022
Genre=9
Discnumber=1



Register

Register


Go to the top of the page
  Insert nick Quick quote
+Quote Post
20 Pages V  « < 18 19 20  
Start new topic
Replies (570 - 575)
post Sep 18 2022, 13:13:37
Post #571
BAN
Banned till
Apr 4 2023, 19:10:37



Register
вот сд рип


Thanks:
(1) Occultas,
Go to the top of the page
  Insert nick Quick quote
+Quote Post
post Sep 24 2022, 19:06:20
Post #572

Литр
*
Group: Подсевший
Posts: 93
Releases: 0
From: Сыктывкар
On Forums: 5 years 7 months
Thanks: 21 time(s)
Russian Federation


a tout le monde - можно слушать вечно на репите - тяжесть мелодичность качевость - нет надрывов рыжего в вокале... все вкусно - в новом альбоме мене мишин ту марс зашел - прям очень сильно. когда по лесу хожу троллей пугать = ору (шутка)
Go to the top of the page
  Insert nick Quick quote
+Quote Post
post Sep 27 2022, 15:34:49
Post #573
BAN
Banned till
Apr 4 2023, 19:10:37



А у кого есть Японский диск с дистопией бонусом?
Go to the top of the page
  Insert nick Quick quote
+Quote Post
post Nov 8 2022, 18:08:22
Post #574
BAN
Banned till
Apr 4 2023, 19:10:37



https://cloud.mail.ru/public/XBiE/RiTtyvCUw тут японец есть


Thanks:
Go to the top of the page
  Insert nick Quick quote
+Quote Post
post Nov 8 2022, 18:21:04
Post #575

Мегаманьяк
***********
Group: Металариец
Posts: 1,892
Releases: 0
From: д. Гадюкино
On Forums: 8 years 8 months
Thanks: 1117 time(s)
Russian Federation


FLAC (image+.cue+log+full scans)
Register


Thanks:
(1) Occultas,
Go to the top of the page
  Insert nick Quick quote
+Quote Post
post Nov 18 2022, 14:57:17
Post #576
BAN
Banned till
Apr 4 2023, 19:10:37



Go to the top of the page
  Insert nick Quick quote
+Quote Post

20 Pages V  « < 18 19 20
Reply to this topicStart new topic
1 User(s) are reading this topic (1 Guests and 0 Anonymous Users)
0 Members:

 



- Lo-Fi Version Support form
Copyrights and abuse reports form
Time is now: 1st February 2023 - 11:12:18