Welcome Guest ( Log In | Register )

> Invaders - Beware Of The Night (2022), Heavy Metal (D4)
post Sep 7 2022, 12:06:05
Post #1

Правь статус, ####!111
**************
Group: Металариец
Posts: 30,888
Releases: 22762
From: Г.Харьков
On Forums: 10 years 6 months
Thanks: 476319 time(s)
Unknown


(IMG:https://metalarea.org/images/audiocovers/2022_Sep/acov_tid369080_thumb.jpg)

*Artist: Invaders
*Album: Beware Of The Night
*Year: 2022
*Genre: Heavy Metal
*Country: Spain (IMG:https://metalarea.org/forum/style_images/flags/Spain.png)
*Format: mp3@CBR320kbps
*Size: 102MB

Tracklist:
1. Livin' in the End 05:58
2. Spin the Roulette 05:07
3. Redhead Lady 04:53
4. Crimson Fate 03:41
5. Visions 04:05 instrumental
6. Standing in the Twilight 03:43
7. Late to Return 05:07
8. Ghost Religion 07:20
9. Into the Fire 04:26
******************************
Total playing time: 44:20



Extended info
Sergicu Bass
Adrián Drums
Cuadrik Guitars
Sergio Chamoso Vocals
Carlos Sánchez Guitars


Technical info
(IMG:https://metalarea.org/images/spectrogram/2022_Sep/01baaa6de54efb70b277f86a66154ec2.png)
Input File: 07 - Late to Return.mp3
Channels : 2
Sample Rate : 44100
Precision : 16-bit
Duration : 00:05:07.00 = 13538700 samples = 23025 CDDA sectors
File Size : 12.4M
Bit Rate : 324k
Sample Encoding: MPEG audio (layer I, II or III)
Comments :
Title=Late to Return
Artist=Invaders (Spain)
Album=Beware of the Night
Tracknumber=7
Year=2022-09-08
Genre=Rock
Discnumber=1



Register


Go to the top of the page
  Insert nick Quick quote
+Quote Post
 
Start new topic
Replies (1 - 1)
post Sep 9 2022, 16:32:50
Post #2

hearer & reader
**************
Group: Металариец
Posts: 10,442
Releases: 225
From: Moscow
On Forums: 15 years 2 months
Thanks: 12859 time(s)
Russian Federation




Thanks:
(1) samokot,
Go to the top of the page
  Insert nick Quick quote
+Quote Post

Reply to this topicStart new topic
2 User(s) are reading this topic (2 Guests and 0 Anonymous Users)
0 Members:

 



- Lo-Fi Version Support form
Copyrights and abuse reports form
Time is now: 30th November 2022 - 09:16:29