Welcome Guest ( Log In | Register )

 
Reply to this topicStart new topic
> Mausoleum Gate - Metal And The Might/Demon Soul [single] (2016), Heavy Metal
post Sep 8 2022, 14:57:14
Post #1

Правь статус, 616
**************
Group: Металариец
Posts: 8,519
Releases: 6795
From: 55°35’N 38°08’E
On Forums: 14 years 6 months
Thanks: 122997 time(s)
Russian Federation


(IMG:https://metalarea.org/images/audiocovers/2022_Sep/acov_tid369145_thumb.jpg)

*Artist: Mausoleum Gate
*Album: Metal And The Might/Demon Soul [single]
*Year: 2016
*Genre: Heavy Metal
*Country: Finland (IMG:https://metalarea.org/forum/style_images/flags/Finland.png)
*Format: mp3@CBR320kbps
*Size: 23MB

Tracklist:
1.Metal And The Might 03:42
2.Demon Soul 06:11
******************************
Total playing time: 9:53



(IMG:https://metalarea.org/images/youtube.png)

Technical info
(IMG:https://metalarea.org/images/spectrogram/2022_Sep/a98293e5abcc2f2cd3194e4dae7cf121.png)
Input File: 02 Demon Soul.mp3
Channels : 2
Sample Rate : 44100
Precision : 16-bit
Duration : 00:06:11.41 = 16379005 samples = 27855.5 CDDA sectors
File Size : 14.9M
Bit Rate : 322k
Sample Encoding: MPEG audio (layer I, II or III)
Comments :
Title=Demon Soul
Artist=Mausoleum Gate
Album=Metal And The Might / Demon Soul
Tracknumber=2
Year=2016
Genre=Heavy Metal



Register


Go to the top of the page
  Insert nick Quick quote
+Quote Post

Reply to this topicStart new topic
1 User(s) are reading this topic (1 Guests and 0 Anonymous Users)
0 Members:

 



- Lo-Fi Version Support form
Copyrights and abuse reports form
Time is now: 28th January 2023 - 20:26:48