Welcome Guest ( Log In | Register )

> Brainless - Ruler Of Everthing (2022), Thrash Metal
post Sep 9 2022, 10:14:48
Post #1

Правь статус, ####!111
**************
Group: Металариец
Posts: 30,923
Releases: 22794
From: Г.Харьков
On Forums: 10 years 6 months
Thanks: 477013 time(s)
Unknown


(IMG:http://metalarea.org/images/audiocovers/2022_Sep/acov_tid369250_thumb.jpg)

*Artist: Brainless
*Album: Ruler Of Everthing
*Year: 2022
*Genre: Thrash Metal
*Country: Germany (IMG:http://metalarea.org/forum/style_images/flags/Germany.png)
*Format: mp3@CBR320kbps
*Size: 65MB

Tracklist:
1. Sniper Alley
2. Master and Slave
3. Sweet Poison
4. Bare Iron
5. Get Away From Me
6. Fake People
7. Bang Your Head And Dive (2022)
******************************
Total playing time: 27:58



Extended info
Joshua Simon Guitars
Rolf Pöhlmann Vocals (backing), Bass
Dieter Simon Vocals, Guitars


Technical info
(IMG:http://metalarea.org/images/spectrogram/2022_Sep/578056144e072dc86650df7458f34137.png)
Input File: 04 - Bare Iron.mp3
Channels : 2
Sample Rate : 44100
Precision : 16-bit
Duration : 00:04:50.00 = 12789000 samples = 21750 CDDA sectors
File Size : 11.8M
Bit Rate : 324k
Sample Encoding: MPEG audio (layer I, II or III)
Comments :
Title=Bare Iron
Artist=Brainless
Album=Ruler Of Everthing
Tracknumber=4
Year=2022-09-09
Genre=Metal
Discnumber=1



Register


Go to the top of the page
  Insert nick Quick quote
+Quote Post
 
Start new topic
Replies (1 - 1)
post Sep 11 2022, 16:27:10
Post #2

Common dweller of hell
**************
Group: Металариец
Posts: 4,497
Releases: 12
From: Dnipro
On Forums: 14 years 4 months
Thanks: 1781 time(s)
Ukraine


Не дурно.


Thanks:
(1) Ingvar,
Go to the top of the page
  Insert nick Quick quote
+Quote Post

Reply to this topicStart new topic
2 User(s) are reading this topic (2 Guests and 0 Anonymous Users)
0 Members:

 



- Lo-Fi Version Support form
Copyrights and abuse reports form
Time is now: 3rd December 2022 - 16:46:03