Welcome Guest ( Log In | Register )

> Burn The Crucifix - La Sconfitta Di Cristo [demo] (1992), Black Metal
post Sep 9 2022, 11:52:22
Post #1

Подвал
**************
Group: Металариец
Posts: 18,074
Releases: 10350
From: Far East (Khabarovsk)
On Forums: 13 years 10 months
Thanks: 120328 time(s)
Russian Federation


(IMG:http://metalarea.org/images/audiocovers/2022_Sep/acov_tid369258_thumb.JPG)

*Artist: Burn The Crucifix
*Album: La Sconfitta Di Cristo [demo]
*Year: 1992
*Genre: Black Metal
*Country: Italy (IMG:http://metalarea.org/forum/style_images/flags/Italy.png)
*Format: mp3@CBR192kbps
*Size: 26MB

Tracklist:
1. Black Procession / Prophetica 02:58
2. Hatred From Hell 02:13
3. Witches Night 01:45
4. Cathedral Of Re-Elected 01:31
5. La Sconfitta Di Cristo 01:12
6. Bestial Malevolence 01:12
7. The Virgin Womb's Child 00:50
8. March To Hell 04:51
9. Sodomized Christ 02:13
******************************
Total playing time: 18:45

Extended info
Recorded in the Temple of Black Legions.


Technical info
(IMG:http://metalarea.org/images/spectrogram/2022_Sep/19e6d18f963c979912e3c17207fbe81f.png)
Input File: 02-Hatred From Hell.mp3
Channels : 2
Sample Rate : 44100
Precision : 16-bit
Duration : 00:02:13.68 = 5895156 samples = 10025.8 CDDA sectors
File Size : 3.21M
Bit Rate : 192k
Sample Encoding: MPEG audio (layer I, II or III)
Comments :
Title=Hatred From Hell
Artist=Burn The Crucifix (Ita)
Album=La Sconfitta Di Cristo (Demo)
Tracknumber=02
Year=1992
Genre=Black Metal



Register


Go to the top of the page
  Insert nick Quick quote
+Quote Post
 
Start new topic
Replies (1 - 1)
post Sep 22 2022, 12:42:20
Post #2

Мегаманьяк
***********
Group: Металариец
Posts: 1,617
Releases: 25
From: Spain
On Forums: 15 years 3 months
Thanks: 1383 time(s)
Spain


https://www.youtube.com/watch?v=twPlHTubN7c
Go to the top of the page
  Insert nick Quick quote
+Quote Post

Reply to this topicStart new topic
1 User(s) are reading this topic (1 Guests and 0 Anonymous Users)
0 Members:

 



- Lo-Fi Version Support form
Copyrights and abuse reports form
Time is now: 29th November 2022 - 11:10:18