Welcome Guest ( Log In | Register )

> Before The Dawn - Downhearted [single] (2022), Melodic Death/Gothic Metal (D)
post Sep 9 2022, 19:40:02
Post #1

MDM-Thrash Metal
**************
Group: Металариец
Posts: 11,479
Releases: 1602
From: Одесса
On Forums: 15 years 3 months
Thanks: 37779 time(s)
Ukraine


(IMG:http://metalarea.org/images/audiocovers/2022_Sep/acov_tid369287_thumb.jpg)

*Artist: Before The Dawn
*Album: Downhearted [single]
*Year: 2022
*Genre: Melodic Death/Gothic Metal
*Country: Finland (IMG:http://metalarea.org/forum/style_images/flags/Finland.png)
*Format: mp3@CBR320kbps
*Size: 10MB

Tracklist:
1. Downhearted 04:07
******************************
Total playing time: 4:07


(IMG:http://metalarea.org/images/youtube.png)

Extended info
Tuomas Saukkonen Vocals (harsh), Guitars (rhythm, acoustic) (1999-2013), Keyboards (2004-2013), Bass (2005), Drums, Guitars (rhythm, acoustic) (2021-present), Vocals (harsh) (2021-2022)
See also: Dawn of Solace, Wolfheart, ex-Black Sun Aeon, ex-Bonegrinder, ex-RoutaSielu, ex-The Final Harvest, ex-Jumalhämärä, ex-Rajavyöhyke
Juho Räihä Guitars (lead) (2007-2013, 2021-present)
See also: Gloria Morti, Riverside Syndicate, Swallow the Sun, Hallatar (live), Red Moon Architect (live), ex-Hedonihil, ex-Wolfheart (live)
Pyry Hanski Bass (2011-2013, 2022-present)
See also: ...and Oceans, Endzeit, Gloria Morti, Mörbid Vomit, Red Moon Architect, Trollheims Grott, Oceanwake (live), True Black Dawn (live), ex-RoutaSielu, ex-Black Sun Aeon (live), Duo HANN, ex-Aeonian Sorrow, ex-Casket, ex-Omnium Gatherum (live), ex-Stam1na (live), ex-Less than Three
Paavo Laapotti Vocals (lead) (2022-present)
See also: Kuusuo


Technical info
(IMG:http://metalarea.org/images/spectrogram/2022_Sep/eb759e581c6e93ad80a4c0ac3015432a.png)
Input File: Before The Dawn - Downhearted.mp3
Channels : 2
Sample Rate : 44100
Precision : 16-bit
Duration : 00:04:07.67 = 10922423 samples = 18575.5 CDDA sectors
File Size : 10.1M
Bit Rate : 328k
Sample Encoding: MPEG audio (layer I, II or III)
Comments :
Title=Downhearted
Artist=Before The Dawn
Album=Downhearted (Single)
Tracknumber=01
Year=2022
Genre=Melodic Death Metal



Register


Go to the top of the page
  Insert nick Quick quote
+Quote Post
 
Start new topic
Replies (1 - 4)
post Sep 10 2022, 10:22:28
Post #2

Тридцать три года на борту "тяжёлого" крейсера
**************
Group: Металариец
Posts: 2,963
Releases: 0
From: Питер
On Forums: 15 years 5 months
Thanks: 938 time(s)
Russian Federation


Готота голимая сингл
Они на альбом разродились что ли?
Go to the top of the page
  Insert nick Quick quote
+Quote Post
post Sep 10 2022, 12:24:29
Post #3

Семь Литров
*******
Group: Металариец
Posts: 781
Releases: 6
On Forums: 4 years 6 months
Thanks: 561 time(s)
Russian Federation


ЦИТАТА(Andrew @ 9th September 2022 - 19:40:02) *
Paavo Laapotti Vocals (lead) (2022-present)

На финском "Голосе" голосил:


Thanks:
Go to the top of the page
  Insert nick Quick quote
+Quote Post
post Sep 10 2022, 12:29:16
Post #4

Ледоруб
**************
Group: Металариец
Posts: 31,685
Releases: 0
From: Санкт-Петербург
On Forums: 13 years 2 months
Thanks: 11245 time(s)
Russian Federation


ЦИТАТА(sadmannn @ 10th September 2022 - 12:22:28) *
Готота голимая сингл

О, так это же хорошо.


Thanks:
(1) Ironcast,
Go to the top of the page
  Insert nick Quick quote
+Quote Post
post Sep 10 2022, 15:00:34
Post #5

Group: Подсевший
Posts: 10
Releases: 0
On Forums: 8 years 10 months
Thanks: 6 time(s)
Russian Federation


После воссоединения в прошлом году финские мастера меланхоличного мелодичного дэт-метала Before The Dawn вернулись в студию для записи своего нового альбома, который должен выйти в 2023 году. Теперь группа делится своим новым синглом «Downhearted».

Комментарий группы: «Вместо того, чтобы оседлать волну ностальгии и оглядываться на старые релизы, мы хотели заглянуть далеко в будущее и продолжить то, на чем остановились в 2013 году — с усиленным составом, который сможет выступать на фестивальных сценах и в автобусах с совершенно новым альбомом. Голос Финляндии 2022 принес самые большие изменения в составе, когда финалист Пааво Лаапотти взял на себя все вокальные обязанности в группе. Его величественная версия "Deadsong" произвела впечатление на всех участников и особенно на автора песен Туомаса, который сразу же начал планировать проект с Пааво. После того, как первая песня для Paavo была закончена и сведена, первой мыслью, которая пришла в голову Туомасу, было: «Это звучит как BTD, но в улучшенной версии». И от этой мысли не было возврата. «Downhearted» — это первый сингл из того, что нам нравится называть Before The Dawn 4.0, и мы уже в студии записываем наш новый альбом, выход которого запланирован на начало лета 2023 года».


Thanks:
Go to the top of the page
  Insert nick Quick quote
+Quote Post

Reply to this topicStart new topic
1 User(s) are reading this topic (1 Guests and 0 Anonymous Users)
0 Members:

 



- Lo-Fi Version Support form
Copyrights and abuse reports form
Time is now: 30th November 2022 - 09:19:15