Welcome Guest ( Log In | Register )

> И неформату есть предел.

Рэп/хип-хоп/шансон/поп удаляются. Для них есть свои порталы.

> Crippled Black Phoenix - Banefyre (2022), Progressive/Post/Folk/Stoner Rock (D14)
post Sep 15 2022, 14:05:56
Post #1

Ёлд ХеллоВяйне
Group Icon
Group: V.I.P
Posts: 33,816
Releases: 144
From: Питер
On Forums: 16 years 1 month
Thanks: 21252 time(s)
Russian Federation


(IMG:https://metalarea.org/images/audiocovers/2022_Sep/acov_tid369483_thumb.jpg)

*Artist: Crippled Black Phoenix
*Album: Banefyre
*Year: 2022
*Genre: Progressive/Post/Folk/Stoner Rock
*Country: United Kingdom (IMG:https://metalarea.org/forum/style_images/flags/United%20Kingdom.png)
*Format: mp3@CBR320kbps
*Size: 230MB

Tracklist:
01. Incantation for the Different 02:48
02. Wyches and Basterdz 04:56
03. Ghostland 05:43
04. The Reckoning 06:48
05. Bonefire 04:36
06. Rose of Jericho 13:46
07. Blackout77 07:36
08. Down the Rabbit Hole 10:33
09. Everything is Beautiful but Us 04:35
10. The Pilgrim 06:19
11. I'm Ok, Just Not Alright 10:05
12. The Scene is a False Prophet 15:12
13. No Regrets (Bonus Track) 04:29
******************************
Total playing time: 1:37:26



Extended info
Как всегда зашибись. В начало альбома не очень въехал, зато с седьмого трека сплошное благолепие и растворение воздухов.


Technical info
(IMG:https://metalarea.org/images/spectrogram/2022_Sep/bf034f06e65f4be0f85b39351fa03337.png)
Input File: 08 - Down the Rabbit Hole.mp3
Channels : 2
Sample Rate : 44100
Precision : 16-bit
Duration : 00:10:33.12 = 27920372 samples = 47483.6 CDDA sectors
File Size : 25.4M
Bit Rate : 321k
Sample Encoding: MPEG audio (layer I, II or III)
Comments :
Title=Down the Rabbit Hole
Artist=Crippled Black Phoenix
Album=Banefyre
Tracknumber=8/13
Year=2022
Genre=Progressive/Post/Folk/Stoner Rock



Register


Go to the top of the page
  Insert nick Quick quote
+Quote Post
 
Start new topic
Replies (1 - 7)
post Sep 17 2022, 09:07:10
Post #2

Шесть Литров
******
Group: Металариец
Posts: 644
Releases: 5
On Forums: 12 years 10 months
Thanks: 437 time(s)
Russian Federation


После WLG не нужны.
Go to the top of the page
  Insert nick Quick quote
+Quote Post
post Sep 17 2022, 11:49:36
Post #3

https://rateyourmusic.com/~Ghostb
**************
Group: Металариец
Posts: 2,708
Releases: 0
From: Харьков
On Forums: 13 years 2 months
Thanks: 1340 time(s)
Ukraine


Зачем он такой длинный (IMG:style_emoticons/default/1488.gif) Не самый большой знаток творчества группы, но прошлый альбом мне понравился.
Go to the top of the page
  Insert nick Quick quote
+Quote Post
post Sep 17 2022, 12:29:19
Post #4

Пять Литров
*****
Group: Металариец
Posts: 403
Releases: 0
From: Самара
On Forums: 1 year 7 months
Thanks: 222 time(s)
Russian Federation


Прог/пост-фолк/стоунер-рок - интересное сочетание.


Thanks:
(1) Ghostb,
Go to the top of the page
  Insert nick Quick quote
+Quote Post
post Sep 17 2022, 13:25:26
Post #5

Ёлд ХеллоВяйне
Group Icon
Group: V.I.P
Posts: 33,816
Releases: 144
From: Питер
On Forums: 16 years 1 month
Thanks: 21252 time(s)
Russian Federation


QUOTE(POMAHOB @ 17th September 2022 - 11:07:10) *
После WLG не нужны.


Сильнейший Great Escape был в 18-м (IMG:style_emoticons/default/23.gif)


Thanks:
(1) Ghostb,
Go to the top of the page
  Insert nick Quick quote
+Quote Post
post Sep 18 2022, 10:58:37
Post #6

Девять Литров
*********
Group: Металариец
Posts: 910
Releases: 0
On Forums: 15 years 1 month
Thanks: 429 time(s)
Poland


ЦИТАТА(POMAHOB @ Sep 17 2022, 11:07:10) *
После WLG не нужны.

странно, но альбом 2022 по мне так лучший у них
Go to the top of the page
  Insert nick Quick quote
+Quote Post
post Sep 19 2022, 10:43:31
Post #7

https://rateyourmusic.com/~Ghostb
**************
Group: Металариец
Posts: 2,708
Releases: 0
From: Харьков
On Forums: 13 years 2 months
Thanks: 1340 time(s)
Ukraine


Очень крутой альбом, прям приятная неожиданность для меня. Буду на досуге предыдущие релизы штудировать (IMG:style_emoticons/default/crazy.gif) У них же вроде вокалист поменялся после 2019 года, нет?
Go to the top of the page
  Insert nick Quick quote
+Quote Post
post Sep 19 2022, 10:49:04
Post #8

Шесть Литров
******
Group: Металариец
Posts: 644
Releases: 5
On Forums: 12 years 10 months
Thanks: 437 time(s)
Russian Federation


Ghostb, у них много вокалистов сменилось, но достойнее Волка так никого и не было.


Thanks:
(2) Ghostb, J0k3r,
Go to the top of the page
  Insert nick Quick quote
+Quote Post

Reply to this topicStart new topic
2 User(s) are reading this topic (2 Guests and 0 Anonymous Users)
0 Members:

 



- Lo-Fi Version Support form
Copyrights and abuse reports form
Time is now: 3rd December 2022 - 00:55:30