Welcome Guest ( Log In | Register )

> Releases Upload / Добавление релизов

Добавить релиз тут / Click here to add release
Рекомендованные обменники / Recommended file shares

> Hetroertzen - Phosphorus, Vol. I (2022), Black Metal (D)
post Sep 15 2022, 14:27:52
Post #1

 
Group Icon
Group: V.I.P
Posts: 2,056
Releases: 173
On Forums: 16 years 3 days
Thanks: 18776 time(s)
Unknown


(IMG:https://metalarea.org/images/audiocovers/2022_Sep/acov_tid369490_thumb.jpg)

*Artist: Hetroertzen
*Album: Phosphorus, Vol. I
*Year: 2022
*Genre: Black Metal
*Country: Chile (IMG:https://metalarea.org/forum/style_images/flags/Chile.png) / Sweden (IMG:https://metalarea.org/forum/style_images/flags/Sweden.png)
*Format: mp3@CBR320kbps
*Size: 112MB

Tracklist:
1. The Arrival 01:55
2. Sea in Black 05:02
3. The Hall of Wonders 05:43
4. Absorption of the Current l 05:59
5. Absorption of the Current II 05:15
6. Vultus Satani 05:40
7. Et in Arcadia Ego 06:02
8. I Am Sickness, I Am Death 06:02
9. Pantokrator 06:47
******************************
Total playing time: 48:25

(IMG:https://metalarea.org/images/youtube.png)

Extended info
Listenable Records, September 16th


Technical info
(IMG:https://metalarea.org/images/spectrogram/2022_Sep/da624d28d338ff710f8036316637430b.png)
Input File: 02 - Sea in Black.mp3
Channels : 2
Sample Rate : 44100
Precision : 16-bit
Duration : 00:05:01.00 = 13274100 samples = 22575 CDDA sectors
File Size : 12.3M
Bit Rate : 326k
Sample Encoding: MPEG audio (layer I, II or III)
Comments :
Title=Sea in Black
Artist=Hetroertzen
Album=Phosphorus, Vol. 1
Tracknumber=2
Year=2022-09-16
Genre=Rock
Discnumber=1



Register


Go to the top of the page
  Insert nick Quick quote
+Quote Post
 
Start new topic
Replies (1 - 4)
post Sep 15 2022, 18:48:57
Post #2

Два Литра
**
Group: Завсегдатай
Posts: 119
Releases: 0
On Forums: 1 year 2 months
Thanks: 123 time(s)
Unknown


Не разочаровывают чилийцы, альбом размерен, зловещ и величественно атмосферен. Сразу слышится, что талант никуда не делся.
Хороший альбом, даже несмотря на почти пятьдесят минут звучания.

Pantokrator, самая контрастная, просто в транс вгоняет своей неординарностью.
Go to the top of the page
  Insert nick Quick quote
+Quote Post
post Sep 15 2022, 21:00:30
Post #3

пустое и необозримое
**************
Group: Металариец
Posts: 5,875
Releases: 0
On Forums: 6 years 7 months
Thanks: 3733 time(s)
Unknown


оккультное ни о чём.


Thanks:
Go to the top of the page
  Insert nick Quick quote
+Quote Post
post Sep 22 2022, 18:30:02
Post #4

Правь статус, ####!111
**************
Group: Металариец
Posts: 5,428
Releases: 4963
From: Одесса
On Forums: 14 years 3 months
Thanks: 58445 time(s)
Ukraine


lossless plz...
Go to the top of the page
  Insert nick Quick quote
+Quote Post
post Sep 22 2022, 18:39:45
Post #5

Cthulhu Cultist
**********
Group: Металариец
Posts: 1,337
Releases: 5
From: Киев
On Forums: 14 years 10 months
Thanks: 558 time(s)
Ukraine


ЦИТАТА(ent404 @ Sep 15 2022, 23:00:30) *
оккультное ни о чём.

Чо, про фосфор же ж. Химия. Следующий будет про азот или кислород. Новое направление.
Go to the top of the page
  Insert nick Quick quote
+Quote Post

Reply to this topicStart new topic
2 User(s) are reading this topic (2 Guests and 0 Anonymous Users)
0 Members:

 



- Lo-Fi Version Support form
Copyrights and abuse reports form
Time is now: 25th September 2022 - 22:49:50