Welcome Guest ( Log In | Register )

> Miscreance - Convergence (2022), Technical Thrash/Death Metal
post Sep 16 2022, 10:16:49
Post #1

Правь статус, ####!111
**************
Group: Металариец
Posts: 30,922
Releases: 22793
From: Г.Харьков
On Forums: 10 years 6 months
Thanks: 476893 time(s)
Unknown


(IMG:http://metalarea.org/images/audiocovers/2022_Sep/acov_tid369527_thumb.jpg)

*Artist: Miscreance
*Album: Convergence
*Year: 2022
*Genre: Technical Thrash/Death Metal
*Country: Italy (IMG:http://metalarea.org/forum/style_images/flags/Italy.png)
*Format: mp3@CBR320kbps
*Size: 73MB

Tracklist:
1. Flame of Consciousness 04:10
2. Fall Apart 04:49
3. Incubo 04:44
4. No Empathy 04:47
5. The Garden 04:03
6. Alchemy 03:59
7. My Internment 03:38
8. Requiem for Sanity 01:27
******************************
Total playing time: 31:37




Extended info
Emiliano Zinà Bass (2018-present)
See also: Hextar, Ruptured, ex-Apocalyptic Raids, ex-Warhawk (live), ex-Atomic Massacre, ex-Lua d'Inverno
Andrea Feltrin Drums (2018-present), Vocals (2021-present)
See also: Hextar, ex-Apocalyptic Raids, ex-Atomic Massacre, ex-Hellcrash, ex-Merciless Attack, ex-Forces (live)
Andrea Granauro Guitars (2018-present)
See also: Sofisticator, ex-Agitator, ex-Forces, ex-Atomic Massacre, ex-Bombardo
Tommaso Cappelletti Guitars (2018-present)
See also: ex-Apocalyptic Raids, ex-Rapist, ex-Atomic Massacre


Technical info
(IMG:http://metalarea.org/images/spectrogram/2022_Sep/72e5eab17b985568ea01c54bb76e6a14.png)
Input File: 04. No Empathy.mp3
Channels : 2
Sample Rate : 44100
Precision : 16-bit
Duration : 00:04:46.69 = 12642853 samples = 21501.5 CDDA sectors
File Size : 11.5M
Bit Rate : 320k
Sample Encoding: MPEG audio (layer I, II or III)
Comments :
Title=No Empathy
Artist=Miscreance
Album=Convergence
Tracknumber=04
Year=2022
Genre=Technical Death, Thrash Metal



Register


Go to the top of the page
  Insert nick Quick quote
+Quote Post
 
Start new topic
Replies (1 - 7)
post Sep 16 2022, 10:42:16
Post #2

Правь статус, ####!111
**************
Group: Металариец
Posts: 30,922
Releases: 22793
From: Г.Харьков
On Forums: 10 years 6 months
Thanks: 476893 time(s)
Unknown


FLAC (Tracks) 229 mb
Register


Go to the top of the page
  Insert nick Quick quote
+Quote Post
post Sep 16 2022, 11:49:46
Post #3

Орка тіло ляже в грунт, допоможе ЗСУ
**************
Group: Металариец
Posts: 2,781
Releases: 0
From: Україна
On Forums: 13 years 10 months
Thanks: 2455 time(s)
Ukraine


Да да, это то что мне надо, жду.
Хотя если честно, то уже пару разиков послушал на заграничном ресурсе, не помню название его.
Годная штука, по олде прям как оттуда, хорошо заморочились.
В копилку желаний не глядя)
Данке за релиз (IMG:style_emoticons/default/pray.gif) (IMG:style_emoticons/default/pray.gif) (IMG:style_emoticons/default/pray.gif)


Go to the top of the page
  Insert nick Quick quote
+Quote Post
post Sep 16 2022, 20:15:58
Post #4

brutalcesar
**************
Group: Металариец
Posts: 18,593
Releases: 76
From: Рязань
On Forums: 13 years 10 months
Thanks: 10856 time(s)
Russian Federation


Дело Чака, вместе со звучанием и приемами - живёт!


Thanks:
(1) bowelled,
Go to the top of the page
  Insert nick Quick quote
+Quote Post
post Sep 21 2022, 08:44:14
Post #5

Шесть Литров
******
Group: Металариец
Posts: 510
Releases: 0
From: германия
On Forums: 13 years 11 months
Thanks: 184 time(s)
Russian Federation


Отлично играют ! Death,Coroner ,Cynic , Супер!
Go to the top of the page
  Insert nick Quick quote
+Quote Post
post Sep 27 2022, 04:29:47
Post #6

кручу наждак
**************
Group: Металариец
Posts: 5,802
Releases: 107
From: Самара
On Forums: 12 years 6 months
Thanks: 4550 time(s)
Russian Federation


Попытка закоса под Чака защщитана.
Go to the top of the page
  Insert nick Quick quote
+Quote Post
post Sep 27 2022, 10:23:34
Post #7

мизантроп же
**********
Group: Металариец
Posts: 1,238
Releases: 8
From: Москва
On Forums: 15 years 8 months
Thanks: 1223 time(s)
Russian Federation


Отлично, очень понравилось.
Go to the top of the page
  Insert nick Quick quote
+Quote Post
post Nov 7 2022, 16:51:01
Post #8

Морской Волк
*******
Group: Металариец
Posts: 765
Releases: 0
From: Питер
On Forums: 14 years 1 month
Thanks: 417 time(s)
Russian Federation


ЦИТАТА(judaz @ Sep 27 2022, 06:29:47) *
Попытка закоса под Чака защщитана.

Ключевое слово - попытка. Мимо кассы.
Go to the top of the page
  Insert nick Quick quote
+Quote Post

Reply to this topicStart new topic
1 User(s) are reading this topic (1 Guests and 0 Anonymous Users)
0 Members:

 



- Lo-Fi Version Support form
Copyrights and abuse reports form
Time is now: 3rd December 2022 - 01:24:11