Welcome Guest ( Log In | Register )

> Striborg - Through The Melancholy Tunnel Of Despair (2022), Atmospheric Black Metal/Blackwave/Dark Ambient (D)
post Sep 19 2022, 10:04:20
Post #1

Пять Литров
*****
Group: Металариец
Posts: 457
Releases: 84
On Forums: 9 years 3 months
Thanks: 1906 time(s)
Serbia


(IMG:https://metalarea.org/images/audiocovers/2022_Sep/acov_tid369615_thumb.jpg)

*Artist: Striborg
*Album: Through The Melancholy Tunnel Of Despair
*Year: 2022
*Genre: Atmospheric Black Metal/Blackwave/Dark Ambient
*Country: Australia (IMG:https://metalarea.org/forum/style_images/flags/Australia.png)
*Format: mp3@CBR320kbps
*Size: 321MB

Tracklist:
1. The End of the Tunnel 19:04
2. The Ghostly Night Sky 09:37
3. Upon a Crooked Chair Draped in Tears 09:26
4. An Unfamiliar Journey 10:00
5. A Portal into Oblivion 09:27
6. The Maladaptive Daydreamer 11:55
7. The Frozen Window 07:50
8. In a Dark and Lonely Place 09:46
9. The Anguish of Unrequited Love 09:34
10. Rejection Sensitive Dysphoria 08:52
11. Through the Melancholy Tunnel of Despair 10:06
12. Eternal Forest Nightmare 08:26
13. As My Soul Withers Away 07:07
14. In the Darkness of Night Dwells My Broken Mind 08:58
15. Being Dragged Deeper in the Dark Abyss 09:36
******************************
Total playing time: 2:29:44



Extended info
After more than 5 years I return to the gloomy world of DSBM.
*No guitars were used during these recording sessions.
Only synthesizers.
*No acoustic drums were performed during these sessions.
Either real played electronic drums, finger drums or programmed drum rhythms.
*Vocals are both traditional black metal vocals and eerie whispering.


Technical info
(IMG:https://metalarea.org/images/spectrogram/2022_Sep/014a7492413d99ede6cab60d25075653.png)
Input File: 08.Striborg - In a Dark and Lonely Place.mp3
Channels : 2
Sample Rate : 44100
Precision : 16-bit
Duration : 00:09:46.38 = 25859358 samples = 43978.5 CDDA sectors
File Size : 23.5M
Bit Rate : 320k
Sample Encoding: MPEG audio (layer I, II or III)
Comments :
Title=In a Dark and Lonely Place
Artist=Striborg
Album=Through the Melancholy Tunnel of Despair
Tracknumber=8
Year=2022



Register


Go to the top of the page
  Insert nick Quick quote
+Quote Post
 
Start new topic
Replies (1 - 4)
post Sep 19 2022, 21:18:57
Post #2

пустое и необозримое
**************
Group: Металариец
Posts: 6,068
Releases: 0
On Forums: 7 years 3 days
Thanks: 3814 time(s)
Antarctica


ЦИТАТА(LazarShadow @ 19th September 2022 - 14:04:20) *
I return to the gloomy world of DSBM.

nnoooooooo!!!!!(ц)
Go to the top of the page
  Insert nick Quick quote
+Quote Post
post Sep 20 2022, 19:02:13
Post #3

Четыре Литра
****
Group: Металариец
Posts: 376
Releases: 0
From: Калуга
On Forums: 5 years 4 days
Thanks: 125 time(s)
Russian Federation



*No guitars were used during these recording sessions.
Only synthesizers.
Atmospheric Black Metal? Как? Откуда?
Go to the top of the page
  Insert nick Quick quote
+Quote Post
post Sep 20 2022, 20:03:46
Post #4

Литр
*
Group: Подсевший
Posts: 87
Releases: 0
From: Краснодар
On Forums: 15 years 5 months
Thanks: 10 time(s)
Russian Federation


Забавляет, что на бэндкампе диджитал альбом продается за 10 австралийских баксов, когда 14 из 15 треков с альбома можно там же бесплатно скачать как синглы (IMG:style_emoticons/default/hmm.gif)


Thanks:
Go to the top of the page
  Insert nick Quick quote
+Quote Post
post Sep 20 2022, 21:15:53
Post #5

Четыре Литра
****
Group: Металариец
Posts: 376
Releases: 0
From: Калуга
On Forums: 5 years 4 days
Thanks: 125 time(s)
Russian Federation


ЦИТАТА(SlimBZ @ Sep 20 2022, 20:03:46) *
Забавляет, что на бэндкампе диджитал альбом продается за 10 австралийских баксов, когда 14 из 15 треков с альбома можно там же бесплатно скачать как синглы (IMG:style_emoticons/default/hmm.gif)

Это для не внимательных)
Go to the top of the page
  Insert nick Quick quote
+Quote Post

Reply to this topicStart new topic
1 User(s) are reading this topic (1 Guests and 0 Anonymous Users)
0 Members:

 



- Lo-Fi Version Support form
Copyrights and abuse reports form
Time is now: 1st February 2023 - 10:15:29