Welcome Guest ( Log In | Register )

> Releases Upload / Добавление релизов

Добавить релиз тут / Click here to add release
Рекомендованные обменники / Recommended file shares

> Novichok - Geo​-​Desiccant (2022), Thrash Metal
post Sep 20 2022, 20:20:52
Post #1

Правь статус, ####!111
**************
Group: Металариец
Posts: 30,319
Releases: 22320
From: Г.Харьков
On Forums: 10 years 4 months
Thanks: 465919 time(s)
Unknown


(IMG:http://metalarea.org/images/audiocovers/2022_Sep/acov_tid369671_thumb.jpg)

*Artist: Novichok
*Album: Geo​-​Desiccant
*Year: 2022
*Genre: Thrash Metal
*Country: Canada (IMG:http://metalarea.org/forum/style_images/flags/Canada.png)
*Format: mp3@CBR320kbps
*Size: 106MB

Tracklist:
1. Thrash Free or Die! 05:07
2. First World Problems 05:32
3. Tire Fire 03:18
4. Apes with Sticks 04:41
5. Freedom Fighter's Manual 04:59
6. Dead Weight 03:30
7. Predicting Terror 05:52
8. Geo​-​Desiccant 07:18
9. Heat Death 06:10
******************************
Total playing time: 46:27



Extended info
Andy MacIntosh Drums, Keyboards
Lindsey Dicks Guitars
See also: Turbo
Jeff MacDonald Vocals, Bass


Technical info
(IMG:http://metalarea.org/images/spectrogram/2022_Sep/a4e3ea01400e804b6801aab976a80011.png)
Input File: 07 - Predicting Terror.mp3
Channels : 2
Sample Rate : 44100
Precision : 16-bit
Duration : 00:05:52.44 = 15542604 samples = 26433 CDDA sectors
File Size : 14.1M
Bit Rate : 320k
Sample Encoding: MPEG audio (layer I, II or III)
Comments :
Title=Predicting Terror
Artist=Novichok
Album=Geo-Deseccant
Tracknumber=7
Year=2022



Register


Go to the top of the page
  Insert nick Quick quote
+Quote Post
 
Start new topic
Replies (1 - 2)
post Sep 22 2022, 21:14:06
Post #2

Семь Литров
*******
Group: Металариец
Posts: 735
Releases: 0
On Forums: 13 years 2 months
Thanks: 186 time(s)
Ukraine


Суперский альбом от новичков в трэше-первая песня вообще хоть ставь в сборник самых лучших трэш трэков в этом году!!!Получил огромное ужовольствие-как то грамотно они и интирестно преподносят трэш не нудно и не однообразно при этом технично-задорно и т.д!!!РЕСПЕКТ!!!!!


Thanks:
Go to the top of the page
  Insert nick Quick quote
+Quote Post
post Sep 23 2022, 16:28:06
Post #3

? ? ? ? ? ? ? ?
*******
Group: Металариец
Posts: 775
Releases: 23
On Forums: 15 years 7 months
Thanks: 582 time(s)
Russian Federation


Интересное какое название - Новичок.
Go to the top of the page
  Insert nick Quick quote
+Quote Post

Reply to this topicStart new topic
2 User(s) are reading this topic (2 Guests and 0 Anonymous Users)
0 Members:

 



- Lo-Fi Version Support form
Copyrights and abuse reports form
Time is now: 25th September 2022 - 21:28:17