Welcome Guest ( Log In | Register )

 
Reply to this topicStart new topic
> Celestial Empire - Promo 1/96 [demo] (1996), Death/Black Metal
post Sep 22 2022, 10:24:43
Post #1

Подвал
**************
Group: Металариец
Posts: 18,090
Releases: 10364
From: Far East (Khabarovsk)
On Forums: 13 years 10 months
Thanks: 120395 time(s)
Russian Federation


(IMG:http://metalarea.org/images/audiocovers/2022_Sep/acov_tid369732_thumb.jpg)

*Artist: Celestial Empire
*Album: Promo 1/96 [demo]
*Year: 1996
*Genre: Death/Black Metal
*Country: Finland (IMG:http://metalarea.org/forum/style_images/flags/Finland.png)
*Format: mp3@CBR192kbps
*Size: 27MB

Tracklist:
1. Dark Sides Of Mine 04:55
2. Manaaja 04:15
3. My Deepest Thoughts 05:56
4. Comets (Our Fate Have Been Sealed) 04:44
******************************
Total playing time: 19:50

Extended info
Recorded at Tico - Tico Studio 8-9.7.96.


Technical info
(IMG:http://metalarea.org/images/spectrogram/2022_Sep/a88ac266ffdbdf26ab0a97b0d68cc0a9.png)
Input File: 01-Dark Sides of Mine.mp3
Channels : 2
Sample Rate : 44100
Precision : 16-bit
Duration : 00:04:55.46 = 13029742 samples = 22159.4 CDDA sectors
File Size : 7.09M
Bit Rate : 192k
Sample Encoding: MPEG audio (layer I, II or III)
Comments :
Title=Dark Sides of Mine
Artist=Celestial Empire (Fin)
Album=Promo 1-96 (Demo)
Tracknumber=01
Year=1996
Genre=Death Metal



Register


Go to the top of the page
  Insert nick Quick quote
+Quote Post

Reply to this topicStart new topic
2 User(s) are reading this topic (2 Guests and 0 Anonymous Users)
0 Members:

 



- Lo-Fi Version Support form
Copyrights and abuse reports form
Time is now: 2nd December 2022 - 23:24:37