Welcome Guest ( Log In | Register )

> Releases Upload / Добавление релизов

Добавить релиз тут / Click here to add release
Рекомендованные обменники / Recommended file shares

> Venom Inc. - There's Only Black (2022), Heavy Metal
post Sep 22 2022, 11:41:48
Post #1

Правь статус, ####!111
**************
Group: Металариец
Posts: 30,319
Releases: 22320
From: Г.Харьков
On Forums: 10 years 4 months
Thanks: 465960 time(s)
Unknown


(IMG:http://metalarea.org/images/audiocovers/2022_Sep/acov_tid369738_thumb.jpg)

*Artist: Venom Inc.
*Album: There's Only Black
*Year: 2022
*Genre: Heavy Metal
*Country: United Kingdom (IMG:http://metalarea.org/forum/style_images/flags/United%20Kingdom.png)
*Format: mp3@CBR320kbps
*Size: 128MB

Tracklist:
1. How Many Can Die 03:20
2. Infinitum 03:47
3. Come to Me 03:45
4. There's Only Black 04:49
5. Tyrant 05:25
6. Don't Feed Me Your Lies 05:51
7. Man as God 03:22
8. Burn Liar Burn 05:32
9. Nine 03:34
10. Rampant 04:06
11. The Dance 04:53
12. Inferno 05:19
******************************
Total playing time: 53:43



Extended info
Demolition Man Bass, Vocals
Mantas Guitars
War Machine Drums


Technical info
(IMG:http://metalarea.org/images/spectrogram/2022_Sep/bbd8db67daa39b4d2b866c9fbcc47cea.png)
Input File: 08 - Burn Liar Burn.mp3
Channels : 2
Sample Rate : 44100
Precision : 16-bit
Duration : 00:05:32.00 = 14641200 samples = 24900 CDDA sectors
File Size : 13.4M
Bit Rate : 322k
Sample Encoding: MPEG audio (layer I, II or III)
Comments :
Title=Burn Liar Burn
Artist=Venom Inc.
Album=There's Only Black
Tracknumber=8
Year=2022-09-23
Discnumber=1



Register


Go to the top of the page
  Insert nick Quick quote
+Quote Post
 
Start new topic
Replies (1 - 6)
post Sep 22 2022, 20:16:17
Post #2

Семь Литров
*******
Group: Металариец
Posts: 755
Releases: 6
On Forums: 4 years 4 months
Thanks: 556 time(s)
Russian Federation


Вот этих дедов весьма любопытно послушать будет. Спасибо.
Go to the top of the page
  Insert nick Quick quote
+Quote Post
post Sep 23 2022, 07:35:21
Post #3

Котеги! Нравяцо котеги?
**************
Group: Металариец
Posts: 7,584
Releases: 0
From: Терра Инкогнита
On Forums: 12 years 3 months
Thanks: 3602 time(s)
Russian Federation


чё-то я запутался, сколько сейчас веномов то?
Go to the top of the page
  Insert nick Quick quote
+Quote Post
post Sep 23 2022, 07:49:48
Post #4

Шесть Литров
******
Group: Металариец
Posts: 624
Releases: 1
On Forums: 1 year 1 month
Thanks: 775 time(s)
Bhutan


ЦИТАТА(Aresson @ Sep 23 2022, 09:35:21) *
чё-то я запутался, сколько сейчас веномов то?

Это второй состав.
Первый сейчас занят, выступает на высшем уровне

(IMG:https://motorol.com.ua/photos/img/2022-09/23/5h3fmejkcea1poleviqbrn7qa.jpg)


Thanks:
(1) Froze,
Go to the top of the page
  Insert nick Quick quote
+Quote Post
post Sep 23 2022, 08:58:34
Post #5

Котеги! Нравяцо котеги?
**************
Group: Металариец
Posts: 7,584
Releases: 0
From: Терра Инкогнита
On Forums: 12 years 3 months
Thanks: 3602 time(s)
Russian Federation


ЦИТАТА(Formaldehyd @ 23rd September 2022 - 09:49:48) *
Первый сейчас занят, выступает на высшем уровне

это там где Кронос? (IMG:style_emoticons/default/1488.gif)
Go to the top of the page
  Insert nick Quick quote
+Quote Post
post Sep 23 2022, 10:55:50
Post #6

Total Death
**********
Group: Металариец
Posts: 1,452
Releases: 75
On Forums: 13 years 3 months
Thanks: 2087 time(s)
Unknown


ЦИТАТА(Aresson @ Sep 23 2022, 09:35:21) *
чё-то я запутался, сколько сейчас веномов то?

Два. Один с Кроносом, второй с Мантасом/Демолишн Мэном.
Go to the top of the page
  Insert nick Quick quote
+Quote Post
post Sep 23 2022, 13:44:27
Post #7

Котеги! Нравяцо котеги?
**************
Group: Металариец
Posts: 7,584
Releases: 0
From: Терра Инкогнита
On Forums: 12 years 3 months
Thanks: 3602 time(s)
Russian Federation


ЦИТАТА(Necrodictator @ 23rd September 2022 - 12:55:50) *
Два. Один с Кроносом, второй с Мантасом/Демолишн Мэном.

да я к тому, что сначала с мантосом и демолишеном был просто веном, а у кроноса был кронос. Теперь получается поменялись
Go to the top of the page
  Insert nick Quick quote
+Quote Post

Reply to this topicStart new topic
2 User(s) are reading this topic (2 Guests and 0 Anonymous Users)
0 Members:

 



- Lo-Fi Version Support form
Copyrights and abuse reports form
Time is now: 25th September 2022 - 22:53:42