Welcome Guest ( Log In | Register )

> Ulterior - Mephisto (2022), Death Metal
post Sep 22 2022, 11:46:11
Post #1

Правь статус, ####!111
**************
Group: Металариец
Posts: 4,051
Releases: 2520
On Forums: 12 years 1 week
Thanks: 46218 time(s)
Russian Federation


(IMG:https://metalarea.org/images/audiocovers/2022_Sep/acov_tid369739_thumb.jpg)

*Artist: Ulterior
*Album: Mephisto
*Year: 2022
*Genre: Death Metal
*Country: Colombia (IMG:https://metalarea.org/forum/style_images/flags/Colombia.png)
*Format: mp3@CBR320kbps
*Size: 75MB

Tracklist:
01.The Walpurgis Night (Intro) 00:28
02.El Segador 04:31
03.Ulterior 03:21
04.Mephisto 03:25
05.Descomposicion Existencial 03:07
06.Deformity 05:04
07.Beholding the Purge 03:43
08.Mental Cosmos, Inner Chaos 04:26
09.Lack of Conscience 04:25
******************************
Total playing time: 32:30

(IMG:https://metalarea.org/images/youtube.png)

Technical info
(IMG:https://metalarea.org/images/spectrogram/2022_Sep/8c073cfc69ee448232b3979586882bb2.png)
Input File: 03 - Ulterior.mp3
Channels : 2
Sample Rate : 44100
Precision : 16-bit
Duration : 00:03:21.42 = 8882534 samples = 15106.4 CDDA sectors
File Size : 8.43M
Bit Rate : 335k
Sample Encoding: MPEG audio (layer I, II or III)
Comments :
Title=Ulterior
Artist=Ulterior
Album=Mephisto
Tracknumber=03
Year=2022
Genre=Death Metal



Register


Go to the top of the page
  Insert nick Quick quote
+Quote Post
 
Start new topic
Replies (1 - 1)
post Sep 22 2022, 14:47:05
Post #2

Мегаманьяк
***********
Group: Металариец
Posts: 1,935
Releases: 1
From: APATIN, SERBIA, АПАТИН, СЕРБИЯ
On Forums: 15 years 1 month
Thanks: 5703 time(s)



Flac

Register


Go to the top of the page
  Insert nick Quick quote
+Quote Post

Reply to this topicStart new topic
1 User(s) are reading this topic (1 Guests and 0 Anonymous Users)
0 Members:

 



- Lo-Fi Version Support form
Copyrights and abuse reports form
Time is now: 27th November 2022 - 03:05:33