Welcome Guest ( Log In | Register )

> Releases Upload / Добавление релизов

Добавить релиз тут / Click here to add release
Рекомендованные обменники / Recommended file shares

 
Reply to this topicStart new topic
> Freedom Hawk - Take All You Can (2022), Stoner/Doom Metal (D7)
post Sep 22 2022, 12:24:40
Post #1

Serial Uploader
Group Icon
Group: V.I.P
Posts: 38,971
Releases: 37107
From: Lithuania
On Forums: 14 years 3 months
Thanks: 463498 time(s)
Lithuania


(IMG:https://metalarea.org/images/audiocovers/2022_Sep/acov_tid369751_thumb.jpg)

*Artist: Freedom Hawk
*Album: Take All You Can
*Year: 2022
*Genre: Stoner/Doom Metal
*Country: United States (IMG:https://metalarea.org/forum/style_images/flags/United%20States.png)
*Format: mp3@CBR320kbps
*Size: 113MB

Tracklist:
01. Age of the Idiot 03:56
02. Take All You Can 05:42
03. We All Need Rock n' Roll 06:06
04. Seize the Day 05:01
05. Never to Return 04:41
06. From the Inside Out 04:21
07. Skies So Blue 04:45
08. Comin' Home 05:44
09. Desert Song 04:48
******************************
Total playing time: 45:04

(IMG:https://metalarea.org/images/myspace.png)



(IMG:https://metalarea.org/images/youtube.png)

Technical info
(IMG:https://metalarea.org/images/spectrogram/2022_Sep/7af4e1e7b13ee0df2f12980114fa22d9.png)
Input File: 02 - Take All You Can.mp3
Channels : 2
Sample Rate : 44100
Precision : 16-bit
Duration : 00:05:42.00 = 15082200 samples = 25650 CDDA sectors
File Size : 14.7M
Bit Rate : 345k
Sample Encoding: MPEG audio (layer I, II or III)
Comments :
Title=Take All You Can
Artist=Freedom Hawk
Album=Take All You Can
Tracknumber=2/9
Year=2022
Discnumber=1/1



Register


Go to the top of the page
  Insert nick Quick quote
+Quote Post

Reply to this topicStart new topic
1 User(s) are reading this topic (1 Guests and 0 Anonymous Users)
0 Members:

 



- Lo-Fi Version Support form
Copyrights and abuse reports form
Time is now: 30th September 2022 - 13:42:24