Welcome Guest ( Log In | Register )

 
Reply to this topicStart new topic
> Grim Woods - Grim Woods (2022), Atmospheric Black Metal
post Sep 22 2022, 12:26:03
Post #1

Правь статус, ####!111
**************
Group: Металариец
Posts: 4,073
Releases: 2533
On Forums: 12 years 1 week
Thanks: 46530 time(s)
Russian Federation


(IMG:https://metalarea.org/images/audiocovers/2022_Sep/acov_tid369752_thumb.jpg)

*Artist: Grim Woods
*Album: Grim Woods
*Year: 2022
*Genre: Atmospheric Black Metal
*Country: Russian Federation (IMG:https://metalarea.org/forum/style_images/flags/Russian%20Federation.png)
*Format: mp3@CBR320kbps
*Size: 105MB

Tracklist:
1.Потерянный В Пути 10:16
2.В Потускневших Глазах 11:29
3.На Закате 10:30
4.Где Ветрам... 11:47
******************************
Total playing time: 44:02



Extended info
WV Everything
See also: Dodmorke, Dubak, Eres Nod, Gravefrost, Howl, Kvelsorgen, Rooforest, Sibentodt, Theoroth, Time Heals Nothing, Vhaatreim, Vralgaldr, Wintaar, Winterkälte, ex-Spirit of Night, ex-Wampyric Bloodlust, ex-W, ex-Зимний Дракон, Unguth Vaentron


Technical info
(IMG:https://metalarea.org/images/spectrogram/2022_Sep/a4d9510e55013b9dffba0c3e8b684549.png)
Input File: 01 Потерянный В Пути.mp3
Channels : 2
Sample Rate : 44100
Precision : 16-bit
Duration : 00:10:16.76 = 27199204 samples = 46257.1 CDDA sectors
File Size : 24.8M
Bit Rate : 322k
Sample Encoding: MPEG audio (layer I, II or III)
Comments :
Title=Потерянный В Пути
Artist=Grim Woods
Album=Grim Woods
Tracknumber=1
Year=2022
Genre=Black Metal



Register


Go to the top of the page
  Insert nick Quick quote
+Quote Post

Reply to this topicStart new topic
1 User(s) are reading this topic (1 Guests and 0 Anonymous Users)
0 Members:

 



- Lo-Fi Version Support form
Copyrights and abuse reports form
Time is now: 29th November 2022 - 12:01:43