Welcome Guest ( Log In | Register )

> Releases Upload / Добавление релизов

Добавить релиз тут / Click here to add release
Рекомендованные обменники / Recommended file shares

 
Reply to this topicStart new topic
> Max Boras - Transhuman (2022), Instrumental/Progressive Metal
post Sep 22 2022, 12:35:49
Post #1

Serial Uploader
Group Icon
Group: V.I.P
Posts: 38,972
Releases: 37108
From: Lithuania
On Forums: 14 years 3 months
Thanks: 463747 time(s)
Lithuania


(IMG:https://metalarea.org/images/audiocovers/2022_Sep/acov_tid369753_thumb.jpg)

*Artist: Max Boras
*Album: Transhuman
*Year: 2022
*Genre: Instrumental/Progressive Metal
*Country: United States (IMG:https://metalarea.org/forum/style_images/flags/United%20States.png)
*Format: mp3@CBR320kbps
*Size: 136MB

Tracklist:
01. Absolute Power 5:29
02. Transhuman 4:42
03. Download 6:02
04. I Do 6:36
05. ? 1:06
06. Corrupts 5:49
07. We Have Come 7:27
08. Is It Ours 5:04
09. Walküre 6:36
10. Absolutely 9:58
******************************
Total playing time: 58:49

Preview 1

(IMG:https://metalarea.org/images/youtube.png)

Technical info
(IMG:https://metalarea.org/images/spectrogram/2022_Sep/8739b7bac35dfdcfd1e768a1b5e97e21.png)
Input File: 03 - Download.mp3
Channels : 2
Sample Rate : 44100
Precision : 16-bit
Duration : 00:06:01.00 = 15920100 samples = 27075 CDDA sectors
File Size : 14.6M
Bit Rate : 324k
Sample Encoding: MPEG audio (layer I, II or III)
Comments :
Title=Download
Artist=Max Boras
Album=Transhuman
Tracknumber=3
Year=2022
Discnumber=1



Register


Thanks:
Go to the top of the page
  Insert nick Quick quote
+Quote Post

Reply to this topicStart new topic
1 User(s) are reading this topic (1 Guests and 0 Anonymous Users)
0 Members:

 



- Lo-Fi Version Support form
Copyrights and abuse reports form
Time is now: 4th October 2022 - 01:47:07