Welcome Guest ( Log In | Register )

> Releases Upload / Добавление релизов

Добавить релиз тут / Click here to add release
Рекомендованные обменники / Recommended file shares

 
Reply to this topicStart new topic
> Bovice - Dreaming Of Paradise (2022), Thrash Metal/Hardcore
post Sep 22 2022, 12:50:11
Post #1

Правь статус, ####!111
**************
Group: Металариец
Posts: 30,353
Releases: 22347
From: Г.Харьков
On Forums: 10 years 4 months
Thanks: 466673 time(s)
Unknown


(IMG:http://metalarea.org/images/audiocovers/2022_Sep/acov_tid369755_thumb.jpg)

*Artist: Bovice
*Album: Dreaming Of Paradise
*Year: 2022
*Genre: Thrash Metal/Hardcore
*Country: United States (IMG:http://metalarea.org/forum/style_images/flags/United%20States.png)
*Format: mp3@CBR320kbps
*Size: 68MB

Tracklist:
1. Cease to Shine
2. Perdoname
3. Sluggo Season
4. Glitch Death
5. Burnt Sacrifice
6. DOD
7. Big Talk
8. King of Fighters
9. Glass Tears
******************************
Total playing time: 27:50




Extended info
Adam T. Drums
Tim Guitars
Tevin Guitars
Julian Vocals
Vince G. Bass (2020-present)


Technical info
(IMG:http://metalarea.org/images/spectrogram/2022_Sep/56cedfc504081a100f2bbc5c53e53d4d.png)
Input File: 09 - Glass Tears.mp3
Channels : 2
Sample Rate : 44100
Precision : 16-bit
Duration : 00:05:19.00 = 14067900 samples = 23925 CDDA sectors
File Size : 13.3M
Bit Rate : 333k
Sample Encoding: MPEG audio (layer I, II or III)
Comments :
Title=Glass Tears
Artist=Bovice
Album=Dreaming of Paradise
Tracknumber=9/9
Year=2022
Discnumber=1/1



Register


Go to the top of the page
  Insert nick Quick quote
+Quote Post

Reply to this topicStart new topic
1 User(s) are reading this topic (1 Guests and 0 Anonymous Users)
0 Members:

 



- Lo-Fi Version Support form
Copyrights and abuse reports form
Time is now: 30th September 2022 - 14:43:03