Welcome Guest ( Log In | Register )

> Releases Upload / Добавление релизов

Добавить релиз тут / Click here to add release
Рекомендованные обменники / Recommended file shares

 
Reply to this topicStart new topic
> Rain - A New Tomorrow (2022), Heavy/Power Metal (D14)
post Sep 22 2022, 13:10:09
Post #1

Serial Uploader
Group Icon
Group: V.I.P
Posts: 38,972
Releases: 37108
From: Lithuania
On Forums: 14 years 3 months
Thanks: 463747 time(s)
Lithuania


(IMG:https://metalarea.org/images/audiocovers/2022_Sep/acov_tid369756_thumb.jpg)

*Artist: Rain
*Album: A New Tomorrow
*Year: 2022
*Genre: Heavy/Power Metal
*Country: Italy (IMG:https://metalarea.org/forum/style_images/flags/Italy.png)
*Format: mp3@CBR320kbps
*Size: 104MB

Tracklist:
1. A New Tomorrow 03:40
2. Down in Hell 04:13
3. New Sin 03:26
4. Double Game 03:08
5. Master of Lovers 03:46
6. Never Alone 03:25
7. Loveself 04:01
8. All You Can Hate 04:05
9. Peace Sells (Megadeth cover) 03:43
10. Evil Me 03:14
11. Revolver 02:50
******************************
Total playing time: 39:31

(IMG:https://metalarea.org/images/myspace.png)

(IMG:https://metalarea.org/images/youtube.png)

Technical info
(IMG:https://metalarea.org/images/spectrogram/2022_Sep/e171654860726372dbcd1dca628c80d1.png)
Input File: 02 - Down in hell.mp3
Channels : 2
Sample Rate : 44100
Precision : 16-bit
Duration : 00:04:13.00 = 11157300 samples = 18975 CDDA sectors
File Size : 11.4M
Bit Rate : 359k
Sample Encoding: MPEG audio (layer I, II or III)
Comments :
Title=Down in hell
Artist=Rain
Album=A new tomorrow
Tracknumber=2/11
Year=2022
Discnumber=1/1



Register


Go to the top of the page
  Insert nick Quick quote
+Quote Post

Reply to this topicStart new topic
2 User(s) are reading this topic (2 Guests and 0 Anonymous Users)
0 Members:

 



- Lo-Fi Version Support form
Copyrights and abuse reports form
Time is now: 4th October 2022 - 01:53:06