Welcome Guest ( Log In | Register )

> Releases Upload / Добавление релизов

Добавить релиз тут / Click here to add release
Рекомендованные обменники / Recommended file shares

> Gurd - Hallucinations (2022), Thrash/Groove Metal (D)
post Sep 22 2022, 13:39:14
Post #1

Правь статус, ####!111
**************
Group: Металариец
Posts: 30,319
Releases: 22320
From: Г.Харьков
On Forums: 10 years 4 months
Thanks: 465960 time(s)
Unknown


(IMG:http://metalarea.org/images/audiocovers/2022_Sep/acov_tid369757_thumb.jpg)

*Artist: Gurd
*Album: Hallucinations
*Year: 2022
*Genre: Thrash/Groove Metal
*Country: Switzerland (IMG:http://metalarea.org/forum/style_images/flags/Switzerland.png)
*Format: mp3@CBR320kbps
*Size: 96MB

Tracklist:
1. Merry Go Round
2. I Like the Pain
3. To the Floor
4. FEAR
5. Devil's Bread
6. Ghosts of Black Holes
7. Out of Hand
8. Ship in Distress
9. Taste for More
10. Egoist
******************************
Total playing time: 40:40




Extended info
Franky Winkelmann Bass, Vocals (backing)
See also: ex-The Lie, ex-Pulver, ex-Umount
Pat Guitars, Vocals (backing)
See also: ex-Umount, ex-Cryonix, ex-Acid, ex-Evereve (live)
V.O. Pulver Vocals, Guitars
See also: Pänzer, Poltergeist, Pulver, Messiah (live), ex-Carrion
Steve Karrer Drums (2009-present)
See also: Messiah, ex-Curare, ex-Infected, ex-Pulver, ex-Mirto Massaker


Technical info
(IMG:http://metalarea.org/images/spectrogram/2022_Sep/8124a298152ddae47c78537415c9444d.png)
Input File: 08 - Ship In Distress (feat. Tommy B.).mp3
Channels : 2
Sample Rate : 44100
Precision : 16-bit
Duration : 00:03:54.00 = 10319400 samples = 17550 CDDA sectors
File Size : 9.57M
Bit Rate : 327k
Sample Encoding: MPEG audio (layer I, II or III)
Comments :
Title=Ship In Distress (feat. Tommy B.)
Artist=吀漀洀洀礀 䈀⸀
Album=Hallucinations
Tracknumber=8
Year=2022-09-23
Genre=Rock
Discnumber=1



Register


Go to the top of the page
  Insert nick Quick quote
+Quote Post
 
Start new topic
Replies (1 - 4)
post Sep 22 2022, 14:14:48
Post #2

Шесть Литров
******
Group: Металариец
Posts: 589
Releases: 0
From: Ташкент
On Forums: 14 years 7 months
Thanks: 189 time(s)
Uzbekistan


Понимаю, что не самая топовая команда, но мне они всегда нравились.
Go to the top of the page
  Insert nick Quick quote
+Quote Post
post Sep 22 2022, 19:02:45
Post #3

Три Литра
***
Group: Завсегдатай
Posts: 278
Releases: 3
From: Украина
On Forums: 4 years 2 months
Thanks: 134 time(s)
Ukraine


Нормуль! (IMG:style_emoticons/default/metaler.gif)
Go to the top of the page
  Insert nick Quick quote
+Quote Post
post Sep 23 2022, 00:54:51
Post #4

грызущие вместе
******
Group: Металариец
Posts: 612
Releases: 0
From: Moscow/MO
On Forums: 15 years 10 months
Thanks: 214 time(s)
Russian Federation


ЦИТАТА(JPV @ Sep 22 2022, 16:14:48) *
Понимаю, что не самая топовая команда, но мне они всегда нравились.
Я в тинейджерстве их "Down the Drain" 98 года до дыр заслушивал на кассете "зеленой" "альтернативной" серии и считаю одним из лучших альбомов в (под)жанре. Остальные альбомы послабее, но тоже хорошие.


Thanks:
(1) JPV,
Go to the top of the page
  Insert nick Quick quote
+Quote Post
post Yesterday, 08:10:05
Post #5

Шесть Литров
******
Group: Металариец
Posts: 589
Releases: 0
From: Ташкент
On Forums: 14 years 7 months
Thanks: 189 time(s)
Uzbekistan


А flac ни у кого не найдётся случайно?
Go to the top of the page
  Insert nick Quick quote
+Quote Post

Reply to this topicStart new topic
2 User(s) are reading this topic (2 Guests and 0 Anonymous Users)
0 Members:

 



- Lo-Fi Version Support form
Copyrights and abuse reports form
Time is now: 25th September 2022 - 22:54:14