Welcome Guest ( Log In | Register )

> Releases Upload / Добавление релизов

Добавить релиз тут / Click here to add release
Рекомендованные обменники / Recommended file shares

 
Reply to this topicStart new topic
> Amnesia - Land Of No Return (1998), Technical/Symphonic Death Metal (D7)
post Sep 22 2022, 13:41:32
Post #1

Serial Uploader
Group Icon
Group: V.I.P
Posts: 38,972
Releases: 37108
From: Lithuania
On Forums: 14 years 3 months
Thanks: 463747 time(s)
Lithuania


(IMG:https://metalarea.org/images/audiocovers/2022_Sep/acov_tid369758_thumb.jpg)

*Artist: Amnesia
*Album: Land Of No Return
*Year: 1998
*Genre: Technical/Symphonic Death Metal
*Country: Canada (IMG:https://metalarea.org/forum/style_images/flags/Canada.png)
*Format: mp3@CBR320kbps
*Size: 87MB

Tracklist:
1. Resistance and Rebellion 01:20
2. Confrontation 06:56
3. Fall of a Kingdom 03:38
4. At the Rising Stones 05:32
5. Reborn in Evil 04:00
6. Hymn to the Ancient Ones 03:04
7. Land of No Return 04:48
8. Lost Candle 03:31
9. E-motion 05:08
10. Liberty and Acceptance 01:41
******************************
Total playing time: 39:38

(IMG:https://metalarea.org/images/youtube.png)

Technical info
(IMG:https://metalarea.org/images/spectrogram/2022_Sep/ca72f71eb02395462a818ace438d8bcb.png)
Input File: 02 Confrontation.mp3
Channels : 2
Sample Rate : 48000
Precision : 16-bit
Duration : 00:06:56.33 = 19983744 samples ~ 31224.6 CDDA sectors
File Size : 17.1M
Bit Rate : 328k
Sample Encoding: MPEG audio (layer I, II or III)
Comments :
Title=Confrontation
Artist=Amnesia
Album=Land of No Return
Tracknumber=2/10
Year=1998
Genre=Symphonic/Technical Death Metal



Register


Go to the top of the page
  Insert nick Quick quote
+Quote Post

Reply to this topicStart new topic
2 User(s) are reading this topic (2 Guests and 0 Anonymous Users)
0 Members:

 



- Lo-Fi Version Support form
Copyrights and abuse reports form
Time is now: 4th October 2022 - 02:19:46