Welcome Guest ( Log In | Register )

> Releases Upload / Добавление релизов

Добавить релиз тут / Click here to add release
Рекомендованные обменники / Recommended file shares

 
Reply to this topicStart new topic
> Silent Knight - Full Force (2022), Power Metal (D7)
post Sep 22 2022, 13:46:38
Post #1

Serial Uploader
Group Icon
Group: V.I.P
Posts: 38,972
Releases: 37108
From: Lithuania
On Forums: 14 years 3 months
Thanks: 463747 time(s)
Lithuania


(IMG:https://metalarea.org/images/audiocovers/2022_Sep/acov_tid369759_thumb.jpg)

*Artist: Silent Knight
*Album: Full Force
*Year: 2022
*Genre: Power Metal
*Country: Australia (IMG:https://metalarea.org/forum/style_images/flags/Australia.png)
*Format: mp3@CBR320kbps
*Size: 105MB

Tracklist:
1. Blood in the Water 05:54
2. Full Force 06:21
3. The Last Candle Burns 05:38
4. Dark & Mysterious Times 03:55
5. Screaming Eagle 05:20
6. Into Oblivion 05:18
7. Awakening 05:15
8. Create a New World 05:01
******************************
Total playing time: 42:42




(IMG:https://metalarea.org/images/youtube.png)

Technical info
(IMG:https://metalarea.org/images/spectrogram/2022_Sep/47f733b9ee96ca1dff9edbb136c63086.png)
Input File: 03 - The Last Candle Burns.mp3
Channels : 2
Sample Rate : 44100
Precision : 16-bit
Duration : 00:05:38.00 = 14905800 samples = 25350 CDDA sectors
File Size : 14.4M
Bit Rate : 341k
Sample Encoding: MPEG audio (layer I, II or III)
Comments :
Title=The Last Candle Burns
Artist=Silent Knight
Album=Full Force
Tracknumber=3/8
Year=2022
Discnumber=1/1



Register


Go to the top of the page
  Insert nick Quick quote
+Quote Post

Reply to this topicStart new topic
2 User(s) are reading this topic (2 Guests and 0 Anonymous Users)
0 Members:

 



- Lo-Fi Version Support form
Copyrights and abuse reports form
Time is now: 4th October 2022 - 02:33:00