Welcome Guest ( Log In | Register )

> Releases Upload / Добавление релизов

Добавить релиз тут / Click here to add release
Рекомендованные обменники / Recommended file shares

> Gutvoid - Durance Of Lightless Horizons (2022), Death Metal
post Sep 22 2022, 13:48:56
Post #1

Правь статус, ####!111
**************
Group: Металариец
Posts: 30,353
Releases: 22347
From: Г.Харьков
On Forums: 10 years 4 months
Thanks: 466673 time(s)
Unknown


(IMG:http://metalarea.org/images/audiocovers/2022_Sep/acov_tid369760_thumb.jpg)

*Artist: Gutvoid
*Album: Durance Of Lightless Horizons
*Year: 2022
*Genre: Death Metal
*Country: Canada (IMG:http://metalarea.org/forum/style_images/flags/Canada.png)
*Format: mp3@CBR320kbps
*Size: 121MB

Tracklist:
1. Coils of Gas-Hewn Filament 09:18
2. In Caverns It Lurks 07:11
3. Delivered to the Altar Lich 06:39
4. The One Who Dwells Beyond Time 08:43
5. Skeletal Glyph 05:28
6. Wandering Dungeon 14:53
******************************
Total playing time: 52:12




Extended info
Daniel Bonofiglio Guitars, Bass (2019-present)
See also: Fumes, Grotesque Mass, Internal Infestation, Intestinal Hex, ex-Adytum, Inverted, ex-Detsörgsekälf (live), ex-Assailant, ex-Give, ex-Tendris
Brendan Dean Vocals, Guitars (2019-present)
See also: Fumes, Pukewraith, Simulacra, Soul Devourment, Wexler's Prime, ex-Brought by Pain, ex-Pronostic, ex-Adytum, ex-Detsörgsekälf (live)
Justin Boehm Bass (2020-present)
See also: ex-Orchidectomy
D.W. Lee Drums (2020-present)
See also: Exsanguinate, Boids, Kids Eat Crayons, Skurge


Technical info
(IMG:http://metalarea.org/images/spectrogram/2022_Sep/b551c84e01fcee98f27cb28e380070cd.png)
Input File: 05 - Skeletal Glyph.mp3
Channels : 2
Sample Rate : 44100
Precision : 16-bit
Duration : 00:05:28.00 = 14464800 samples = 24600 CDDA sectors
File Size : 13.4M
Bit Rate : 326k
Sample Encoding: MPEG audio (layer I, II or III)
Comments :
Title=Skeletal Glyph
Artist=Gutvoid
Album=Durance of Lightless Horizons
Tracknumber=5
Year=2022-09-23
Genre=Metal
Discnumber=1



Register


Go to the top of the page
  Insert nick Quick quote
+Quote Post
 
Start new topic
Replies (1 - 1)
post Sep 23 2022, 10:45:21
Post #2

Правь статус, ####!111
**************
Group: Металариец
Posts: 30,353
Releases: 22347
From: Г.Харьков
On Forums: 10 years 4 months
Thanks: 466673 time(s)
Unknown


FLAC (Tracks) 371 mb
Register


Thanks:
(2) Korpse, wreak,
Go to the top of the page
  Insert nick Quick quote
+Quote Post

Reply to this topicStart new topic
1 User(s) are reading this topic (1 Guests and 0 Anonymous Users)
0 Members:

 



- Lo-Fi Version Support form
Copyrights and abuse reports form
Time is now: 30th September 2022 - 14:47:21