Welcome Guest ( Log In | Register )

> Releases Upload / Добавление релизов

Добавить релиз тут / Click here to add release
Рекомендованные обменники / Recommended file shares

> Writhing - Of Earth & Flesh (2022), Death Metal (D5)
post Sep 22 2022, 13:51:40
Post #1

Правь статус, ####!111
**************
Group: Металариец
Posts: 30,319
Releases: 22320
From: Г.Харьков
On Forums: 10 years 4 months
Thanks: 465960 time(s)
Unknown


(IMG:https://metalarea.org/images/audiocovers/2022_Sep/acov_tid369761_thumb.jpg)

*Artist: Writhing
*Album: Of Earth & Flesh
*Year: 2022
*Genre: Death Metal
*Country: Australia (IMG:https://metalarea.org/forum/style_images/flags/Australia.png)
*Format: mp3@CBR320kbps
*Size: 67MB

Tracklist:
1. Monolithic Extinction 03:48
2. That Which Becomes Death 03:18
3. Of Earth & Flesh 03:38
4. Concealed Within the Soil 02:37
5. Uncreation 03:30
6. Passages of Misery 03:12
7. Squalid Sanctum 04:33
8. Portal to Unhallowed Realms 03:53
******************************
Total playing time: 28:29




Extended info
Jackson Smith Bass
Joel Gregory Guitars
Pat James Vocals
Jake Sproule Drums


Technical info
(IMG:https://metalarea.org/images/spectrogram/2022_Sep/565b979f0322eb5b76badad0a274bdf0.png)
Input File: 07 - Squalid Sanctum.mp3
Channels : 2
Sample Rate : 44100
Precision : 16-bit
Duration : 00:04:32.00 = 11995200 samples = 20400 CDDA sectors
File Size : 11.1M
Bit Rate : 325k
Sample Encoding: MPEG audio (layer I, II or III)
Comments :
Title=Squalid Sanctum
Artist=Writhing
Album=Of Earth & Flesh
Tracknumber=7
Year=2022-09-23
Genre=Alternative
Discnumber=1



Register


Go to the top of the page
  Insert nick Quick quote
+Quote Post
 
Start new topic
Replies (1 - 1)
post Yesterday, 11:13:55
Post #2

Мегаманьяк
***********
Group: Металариец
Posts: 1,805
Releases: 1
From: APATIN, SERBIA, АПАТИН, СЕРБИЯ
On Forums: 14 years 11 months
Thanks: 5371 time(s)



Flac

Register


Thanks:
(1) AHBAnep,
Go to the top of the page
  Insert nick Quick quote
+Quote Post

Reply to this topicStart new topic
1 User(s) are reading this topic (1 Guests and 0 Anonymous Users)
0 Members:

 



- Lo-Fi Version Support form
Copyrights and abuse reports form
Time is now: 25th September 2022 - 22:48:15