Welcome Guest ( Log In | Register )

> Releases Upload / Добавление релизов

Добавить релиз тут / Click here to add release
Рекомендованные обменники / Recommended file shares

 
Reply to this topicStart new topic
> Nocny Kochanek - O Jeden Most Za Daleko (2022), Heavy Metal (D5)
post Sep 22 2022, 13:55:06
Post #1

Serial Uploader
Group Icon
Group: V.I.P
Posts: 38,971
Releases: 37107
From: Lithuania
On Forums: 14 years 3 months
Thanks: 463505 time(s)
Lithuania


(IMG:https://metalarea.org/images/audiocovers/2022_Sep/acov_tid369762_thumb.jpg)

*Artist: Nocny Kochanek
*Album: O Jeden Most Za Daleko
*Year: 2022
*Genre: Heavy Metal
*Country: Poland (IMG:https://metalarea.org/forum/style_images/flags/Poland.png)
*Format: mp3@CBR320kbps
*Size: 98MB

Tracklist:
1. Otwieracz 05:33
2. Cudzesy 03:34
3. Pornolistonosz 03:55
4. O jeden most za daleko 03:47
5. Ranny ptaszek 02:45
6. Romantyczny Książę Metalu 04:47
7. Numer z banjo 03:51
8. Serce za szkłem 04:19
9. Wampir 04:24
10. Alkoman 04:53
******************************
Total playing time: 41:48


Preview 2

(IMG:https://metalarea.org/images/youtube.png)

Technical info
(IMG:https://metalarea.org/images/spectrogram/2022_Sep/ac60138df7db8f5199f0d49103759563.png)
Input File: 02 - Cudzesy.mp3
Channels : 2
Sample Rate : 44100
Precision : 16-bit
Duration : 00:03:34.00 = 9437400 samples = 16050 CDDA sectors
File Size : 8.89M
Bit Rate : 332k
Sample Encoding: MPEG audio (layer I, II or III)
Comments :
Title=Cudzesy
Artist=Nocny Kochanek
Album=O Jeden Most Za Daleko
Tracknumber=2/10
Year=2022
Discnumber=1/1



Register


Go to the top of the page
  Insert nick Quick quote
+Quote Post

Reply to this topicStart new topic
2 User(s) are reading this topic (2 Guests and 0 Anonymous Users)
0 Members:

 



- Lo-Fi Version Support form
Copyrights and abuse reports form
Time is now: 30th September 2022 - 14:37:46