Welcome Guest ( Log In | Register )

 
Reply to this topicStart new topic
> Blodskam - Ave Eva (2022), Black Metal
post Sep 22 2022, 14:33:05
Post #1

Serial Uploader
Group Icon
Group: V.I.P
Posts: 39,288
Releases: 37423
From: Lithuania
On Forums: 14 years 5 months
Thanks: 469228 time(s)
Lithuania


(IMG:https://metalarea.org/images/audiocovers/2022_Sep/acov_tid369764_thumb.jpg)

*Artist: Blodskam
*Album: Ave Eva
*Year: 2022
*Genre: Black Metal
*Country: Sweden (IMG:https://metalarea.org/forum/style_images/flags/Sweden.png)
*Format: mp3@CBR320kbps
*Size: 79MB

Tracklist:
1. Perverse Creation 05:04
2. Scales and Skin 04:47
3. This Lonely War 05:05
4. Sharpening the Knives 05:10
5. The Decapitation of the First Man 06:46
6. Chaos Reigns 07:45
******************************
Total playing time: 34:37


Preview 2
(IMG:https://metalarea.org/images/youtube.png)

Technical info
(IMG:https://metalarea.org/images/spectrogram/2022_Sep/81ffb751811dbec1964b59949d1a77a9.png)
Input File: 02 - Scales and Skin.mp3
Channels : 2
Sample Rate : 44100
Precision : 16-bit
Duration : 00:04:47.00 = 12656700 samples = 21525 CDDA sectors
File Size : 11.6M
Bit Rate : 324k
Sample Encoding: MPEG audio (layer I, II or III)
Comments :
Title=Scales and Skin
Artist=Blodskam
Album=Ave Eva
Tracknumber=2
Year=2022
Discnumber=1



Register


Go to the top of the page
  Insert nick Quick quote
+Quote Post

Reply to this topicStart new topic
1 User(s) are reading this topic (1 Guests and 0 Anonymous Users)
0 Members:

 



- Lo-Fi Version Support form
Copyrights and abuse reports form
Time is now: 29th November 2022 - 13:09:11