Welcome Guest ( Log In | Register )

> Releases Upload / Добавление релизов

Добавить релиз тут / Click here to add release
Рекомендованные обменники / Recommended file shares

> THC 666 - Colossal Incubation (2022), Brutal Death Metal
post Sep 22 2022, 14:48:03
Post #1

Serial Uploader
Group Icon
Group: V.I.P
Posts: 38,932
Releases: 37068
From: Lithuania
On Forums: 14 years 3 months
Thanks: 463064 time(s)
Lithuania


(IMG:https://metalarea.org/images/audiocovers/2022_Sep/acov_tid369766_thumb.jpg)

*Artist: THC 666
*Album: Colossal Incubation
*Year: 2022
*Genre: Brutal Death Metal
*Country: Colombia (IMG:https://metalarea.org/forum/style_images/flags/Colombia.png)
*Format: mp3@CBR320kbps
*Size: 70MB

Tracklist:
01. Intro 01:06
02. Pandemic FlashBack 02:50
03. Zooprogery 03:33
04. Postmortem Insomnia 03:04
05. Hate 04:40
06. Xenogenesis Species 02:04
07. Halloween Party with Chloroform 03:10
08. Colossal Incubation 05:00
09. Red Eye of Bvbvllvm 04:19
******************************
Total playing time: 29:46




(IMG:https://metalarea.org/images/youtube.png)

Technical info
(IMG:https://metalarea.org/images/spectrogram/2022_Sep/bbe8eb7196f5768f68e88ee3c22f56e7.png)
Input File: 02. Pandemic FlashBack.mp3
Channels : 2
Sample Rate : 44100
Precision : 16-bit
Duration : 00:02:50.00 = 7497000 samples = 12750 CDDA sectors
File Size : 6.99M
Bit Rate : 329k
Sample Encoding: MPEG audio (layer I, II or III)
Comments :
Title=Pandemic FlashBack
Artist=THC 666
Album=Colossal Incubation
Tracknumber=2
Year=2022
Genre=Brutal Death, Technical Death
Discnumber=1



Register


Go to the top of the page
  Insert nick Quick quote
+Quote Post
 
Start new topic
Replies (1 - 2)
post Sep 23 2022, 08:48:18
Post #2

Мегаманьяк
***********
Group: Металариец
Posts: 1,805
Releases: 1
From: APATIN, SERBIA, АПАТИН, СЕРБИЯ
On Forums: 14 years 11 months
Thanks: 5368 time(s)



Flac

Register


Thanks:
(1) AHBAnep,
Go to the top of the page
  Insert nick Quick quote
+Quote Post
post Yesterday, 21:14:16
Post #3

hearer & reader
**************
Group: Металариец
Posts: 10,340
Releases: 211
From: Moscow
On Forums: 15 years 2 weeks
Thanks: 12635 time(s)
Russian Federation


Go to the top of the page
  Insert nick Quick quote
+Quote Post

Reply to this topicStart new topic
1 User(s) are reading this topic (1 Guests and 0 Anonymous Users)
0 Members:

 



- Lo-Fi Version Support form
Copyrights and abuse reports form
Time is now: 25th September 2022 - 21:44:20