Welcome Guest ( Log In | Register )

 
Reply to this topicStart new topic
> Mindless Hope - Mental Truancy (2022), Progressive Metal
post Sep 22 2022, 14:55:41
Post #1

Serial Uploader
Group Icon
Group: V.I.P
Posts: 39,288
Releases: 37423
From: Lithuania
On Forums: 14 years 5 months
Thanks: 469128 time(s)
Lithuania


(IMG:https://metalarea.org/images/audiocovers/2022_Sep/acov_tid369768_thumb.jpg)

*Artist: Mindless Hope
*Album: Mental Truancy
*Year: 2022
*Genre: Progressive Metal
*Country: United States (IMG:https://metalarea.org/forum/style_images/flags/United%20States.png)
*Format: mp3@CBR320kbps
*Size: 183MB

Tracklist:
01. A Bleak Scenario 05:35
02. F.Y.I. 07:22
03. Paradigm 06:02
04. Detachments 08:39
05. Eugenics 17:15
06. Passive Defiance 01:51
07. The Blind Bleeding the Blind 05:12
08. Infinite Blue 05:33
09. Close Proximity 07:39
10. Suffer the Pain 06:00
11. Void 06:48
12. Closing July 01:43
******************************
Total playing time: 1:19:39


Preview 2


(IMG:https://metalarea.org/images/youtube.png)

Technical info
(IMG:https://metalarea.org/images/spectrogram/2022_Sep/2e7a9c9166fa223d7da96ce9cbaf8c02.png)
Input File: 03 - Paradigm.mp3
Channels : 2
Sample Rate : 44100
Precision : 16-bit
Duration : 00:06:02.00 = 15964200 samples = 27150 CDDA sectors
File Size : 14.6M
Bit Rate : 323k
Sample Encoding: MPEG audio (layer I, II or III)
Comments :
Title=Paradigm
Artist=Mindless Hope
Album=Mental Truancy
Tracknumber=3
Year=2022
Discnumber=1



Register


Go to the top of the page
  Insert nick Quick quote
+Quote Post

Reply to this topicStart new topic
1 User(s) are reading this topic (1 Guests and 0 Anonymous Users)
0 Members:

 



- Lo-Fi Version Support form
Copyrights and abuse reports form
Time is now: 27th November 2022 - 02:37:04