Welcome Guest ( Log In | Register )

> Releases Upload / Добавление релизов

Добавить релиз тут / Click here to add release
Рекомендованные обменники / Recommended file shares

> PeelingFlesh - Human Pudding [ep] (2022), Brutal Death Metal
post Sep 22 2022, 15:09:38
Post #1

Serial Uploader
Group Icon
Group: V.I.P
Posts: 38,932
Releases: 37068
From: Lithuania
On Forums: 14 years 3 months
Thanks: 463064 time(s)
Lithuania


(IMG:https://metalarea.org/images/audiocovers/2022_Sep/acov_tid369769_thumb.jpg)

*Artist: PeelingFlesh
*Album: Human Pudding [ep]
*Year: 2022
*Genre: Brutal Death Metal
*Country: United States (IMG:https://metalarea.org/forum/style_images/flags/United%20States.png)
*Format: mp3@CBR320kbps
*Size: 33MB

Tracklist:
1. Dirtnap Dissection 01:50
2. G Check 01:59
3. Axe to the Face 02:15
4. Bodega Bloodbath 02:08
5. School Zone Speed Bump 02:15
6. Human Pudding 02:50
******************************
Total playing time: 13:17


Preview 2

(IMG:https://metalarea.org/images/youtube.png)

Technical info
(IMG:https://metalarea.org/images/spectrogram/2022_Sep/13ed93f1dd46827f34fad732575d9a77.png)
Input File: 03. Axe to the Face.mp3
Channels : 2
Sample Rate : 44100
Precision : 16-bit
Duration : 00:02:15.64 = 5981636 samples = 10172.9 CDDA sectors
File Size : 5.91M
Bit Rate : 348k
Sample Encoding: MPEG audio (layer I, II or III)
Comments :
Title=Axe to the Face
Artist=Peeling Flesh
Album=Human Pudding
Tracknumber=03
Year=2022
Genre=Slamming Brutal Death Metal



Register


Go to the top of the page
  Insert nick Quick quote
+Quote Post
 
Start new topic
Replies (1 - 2)
post Sep 23 2022, 03:10:18
Post #2

королева бала
**********
Group: Металариец
Posts: 1,087
Releases: 0
On Forums: 15 years 5 months
Thanks: 724 time(s)
Russian Federation


хороший сборник песен для тик-тока. периодически слушаю
Go to the top of the page
  Insert nick Quick quote
+Quote Post
post Sep 23 2022, 08:44:51
Post #3

Мегаманьяк
***********
Group: Металариец
Posts: 1,805
Releases: 1
From: APATIN, SERBIA, АПАТИН, СЕРБИЯ
On Forums: 14 years 11 months
Thanks: 5371 time(s)



Flac

Register


Thanks:
Go to the top of the page
  Insert nick Quick quote
+Quote Post

Reply to this topicStart new topic
1 User(s) are reading this topic (1 Guests and 0 Anonymous Users)
0 Members:

 



- Lo-Fi Version Support form
Copyrights and abuse reports form
Time is now: 25th September 2022 - 22:25:18