Welcome Guest ( Log In | Register )

> Releases Upload / Добавление релизов

Добавить релиз тут / Click here to add release
Рекомендованные обменники / Recommended file shares

> Terraphobia - Rise (2022), Thrash/Death Metal (D4)
post Sep 22 2022, 15:18:59
Post #1

Правь статус, ####!111
**************
Group: Металариец
Posts: 30,319
Releases: 22320
From: Г.Харьков
On Forums: 10 years 4 months
Thanks: 465919 time(s)
Unknown


(IMG:http://metalarea.org/images/audiocovers/2022_Sep/acov_tid369770_thumb.jpg)

*Artist: Terraphobia
*Album: Rise
*Year: 2022
*Genre: Thrash/Death Metal
*Country: Australia (IMG:http://metalarea.org/forum/style_images/flags/Australia.png)
*Format: mp3@CBR320kbps
*Size: 111MB

Tracklist:
01. Eschaton 04:54
02. Narcissistic Outcast 04:24
03. Town of Death 03:47
04. Paralogical Delusions 04:31
05. Rise 04:02
06. Preach That Hate 04:18
07. Persecution 03:52
08. Triumph 00:42
09. Apathy of Fear 03:36
10. Burden of Society 05:04
11. Drowning in Tears 01:55
12. Screams from Hell 07:03
******************************
Total playing time: 48:08



Extended info
Michael Jelinic All instruments, Vocals (1993-present)
See also: ex-Lethal Dose, ex-Mortification


Technical info
(IMG:http://metalarea.org/images/spectrogram/2022_Sep/9af15d42f0d1ad0998d027a47a024fac.png)
Input File: 10 - Burden of Society.mp3
Channels : 2
Sample Rate : 44100
Precision : 16-bit
Duration : 00:05:04.11 = 13411295 samples = 22808.3 CDDA sectors
File Size : 12.3M
Bit Rate : 324k
Sample Encoding: MPEG audio (layer I, II or III)
Comments :
Title=Burden of Society
Artist=Terraphobia
Album=Rise
Tracknumber=10/12
Year=2022
Discnumber=1/1



Register


Go to the top of the page
  Insert nick Quick quote
+Quote Post
 
Start new topic
Replies (1 - 1)
post Sep 22 2022, 18:57:41
Post #2

Три Литра
***
Group: Завсегдатай
Posts: 278
Releases: 3
From: Украина
On Forums: 4 years 2 months
Thanks: 134 time(s)
Ukraine


Как для одного музыканта, круто!
В клипе офигенное начало.


Thanks:
Go to the top of the page
  Insert nick Quick quote
+Quote Post

Reply to this topicStart new topic
1 User(s) are reading this topic (1 Guests and 0 Anonymous Users)
0 Members:

 



- Lo-Fi Version Support form
Copyrights and abuse reports form
Time is now: 25th September 2022 - 21:36:05