Welcome Guest ( Log In | Register )

 
Reply to this topicStart new topic
> Oaken Skull - L'excellence Du Vice (2022), Black/Death Metal
post Sep 22 2022, 15:32:05
Post #1

Serial Uploader
Group Icon
Group: V.I.P
Posts: 39,288
Releases: 37423
From: Lithuania
On Forums: 14 years 5 months
Thanks: 469128 time(s)
Lithuania


(IMG:https://metalarea.org/images/audiocovers/2022_Sep/acov_tid369772_thumb.jpg)

*Artist: Oaken Skull
*Album: L'excellence Du Vice
*Year: 2022
*Genre: Black/Death Metal
*Country: France (IMG:https://metalarea.org/forum/style_images/flags/France.png)
*Format: mp3@CBR320kbps
*Size: 96MB

Tracklist:
1. Pharmakos 07:06
2. Les Chaires De Pierres 04:09
3. Channel The Anger 03:18
4. Quiet Ghosts 03:59
5. Cours... 05:44
6. L'ennemi Ordinaire 04:37
7. L'excellence Du Vice 06:08
8. Cele Kula 05:48
******************************
Total playing time: 40:49



(IMG:https://metalarea.org/images/youtube.png)

Technical info
(IMG:https://metalarea.org/images/spectrogram/2022_Sep/73b67dbba4cc6b795ec202efd602832a.png)
Input File: 02. Les Chaires de Pierres.mp3
Channels : 2
Sample Rate : 44100
Precision : 16-bit
Duration : 00:04:09.59 = 11006919 samples = 18719.2 CDDA sectors
File Size : 10.5M
Bit Rate : 337k
Sample Encoding: MPEG audio (layer I, II or III)
Comments :
Title=Les Chaires de Pierres
Artist=Oaken Skull
Album=L'Excellence du Vice
Tracknumber=02
Year=2022
Genre=Black Metal, Death Metal
Discnumber=1/1



Register


Go to the top of the page
  Insert nick Quick quote
+Quote Post

Reply to this topicStart new topic
1 User(s) are reading this topic (1 Guests and 0 Anonymous Users)
0 Members:

 



- Lo-Fi Version Support form
Copyrights and abuse reports form
Time is now: 27th November 2022 - 03:20:18